[ Сегодня идет свободное скачивание без начисления Download ]


Статистика раздачи
Нет
 
   
 
Top  
 
 
Дети полуночи / Midnight's Children (2012) BDRip 720p Информация о фильме
Название: Дети полуночи
Оригинальное название: Midnight's Children
Год выхода: 2012
Жанр: драма
Режиссер: Дипа Мехта
В ролях: Раджат Капур, Ванш Бхардвай, Анупам Кер, Неха Махаджан, Дхритиман Чаттерджи, Kusum Haidar, Zaib Shaikh, Чарльз Дэнс, Шабана Азми, Самрат Чакрабарти, Шахана Госвами, Сима Бисвас, Рахул Бозе, Хэриш Ханна, Рохит Рой
О фильме:
Трагикомическая и авантюрная судьба Салема Синая, рожденного в полночь индийской независимости, охватывающая историю и политические события Индии XX века.
«Дети полуночи» - это трагикомическое переплетение исторических фактов и фантазии известного индийского писателя Салмана Рушди, по роману которого создан этот фильм.

Страна: Канада, Великобритания
Студия: David Hamilton Productions, Hamilton Mehta Productions, Number 9 Films
Продолжительность: 02:25:34.496
Перевод: Профессиональный (многоголосый, закадровый) "Греб энд Креатив Груп Компани" по заказу Amedia ТВ

Файл
Кодек: h.264
Качество: BDRip 720p Исходник BluRay Mongrel Media
Видео: 1280x536 (2.40:1), 23.976 fps, AVC, ~2833 Kbps, 0.172 bits/pixel
Звук:
Русский, 48.0 KHz, AC3, 2 ch, 192 Kbps
Английский, 48.0 KHz, AC3, 6 ch, 640 Kbps
Субтитры: Английские,SRT(UTF-8)
Фразы на неангл. языке дублируются прошитыми англ. субтитрами

MI

Общее
Уникальный идентификатор : 208364632989290956451394186320767301036 (0x9CC1918FEF847DC68F4CD5CCB55335AC)
Полное имя : E:FILMSDeti_polunochi.2012.BDRip720p.mkv
Формат : Matroska
Версия формата : Version 4 / Version 2
Размер файла : 3,73 Гбайт
Продолжительность : 2 ч. 25 м.
Общий поток : 3667 Кбит/сек
Дата кодирования : UTC 2016-07-18 20:07:37
Программа кодирования : mkvmerge v9.3.1 ('Mask Machine') 64bit
Библиотека кодирования : libebml v1.3.4 + libmatroska v1.4.5
Видео
Идентификатор : 1
Формат : AVC
Формат/Информация : Advanced Video Codec
Профиль формата : High@L4.1
Параметр CABAC формата : Да
Параметр ReFrames формата : 9 кадров
Идентификатор кодека : V_MPEG4/ISO/AVC
Продолжительность : 2 ч. 25 м.
Битрейт : 2833 Кбит/сек
Ширина : 1280 пикселей
Высота : 536 пикселей
Соотношение сторон : 2,40:1
Режим частоты кадров : Постоянный
Частота кадров : 23,976 (24000/1001) кадра/сек
Цветовое пространство : YUV
Субдискретизация насыщенности : 4:2:0
Битовая глубина : 8 бит
Тип развёртки : Прогрессивная
Бит/(Пиксели*Кадры) : 0.172
Размер потока : 2,88 Гбайт (77%)
Библиотека кодирования : x264 core 148 r2638 7599210
Настройки программы : cabac=1 / ref=9 / deblock=1:-3:-3 / analyse=0x3:0x133 / me=umh / subme=11 / psy=1 / psy_rd=1.10:0.15 / mixed_ref=1 / me_range=48 / chroma_me=1 / trellis=2 / 8x8dct=1 / cqm=0 / deadzone=21,11 / fast_pskip=0 / chroma_qp_offset=-3 / threads=8 / lookahead_threads=1 / sliced_threads=0 / nr=0 / decimate=0 / interlaced=0 / bluray_compat=0 / constrained_intra=0 / bframes=9 / b_pyramid=2 / b_adapt=2 / b_bias=0 / direct=3 / weightb=1 / open_gop=0 / weightp=2 / keyint=240 / keyint_min=23 / scenecut=40 / intra_refresh=0 / rc_lookahead=60 / rc=2pass / mbtree=0 / bitrate=2833 / ratetol=1.0 / qcomp=0.60 / qpmin=0 / qpmax=69 / qpstep=4 / cplxblur=20.0 / qblur=0.5 / vbv_maxrate=40000 / vbv_bufsize=50000 / nal_hrd=none / filler=0 / ip_ratio=1.40 / pb_ratio=1.30 / aq=1:1.00
Default : Нет
Forced : Нет
Цветовой диапазон : Limited
Основные цвета : BT.709
Характеристики трансфера : BT.709
Коэффициенты матрицы : BT.709
Аудио #1
Идентификатор : 2
Формат : AC-3
Формат/Информация : Audio Coding 3
Расширение режима : CM (complete main)
Параметр Endianness формата : Big
Идентификатор кодека : A_AC3
Продолжительность : 2 ч. 25 м.
Вид битрейта : Постоянный
Битрейт : 192 Кбит/сек
Каналы : 2 канала
Расположение каналов : Front: L R
Частота : 48,0 КГц
Частота кадров : 31,250 кадров/сек (1536 spf)
Метод сжатия : С потерями
Размер потока : 200 Мбайт (5%)
Язык : Russian
Default : Да
Forced : Нет
Аудио #2
Идентификатор : 3
Формат : AC-3
Формат/Информация : Audio Coding 3
Расширение режима : CM (complete main)
Параметр Endianness формата : Big
Идентификатор кодека : A_AC3
Продолжительность : 2 ч. 25 м.
Вид битрейта : Постоянный
Битрейт : 640 Кбит/сек
Каналы : 6 каналов
Расположение каналов : Front: L C R, Side: L R, LFE
Частота : 48,0 КГц
Частота кадров : 31,250 кадров/сек (1536 spf)
Метод сжатия : С потерями
Размер потока : 666 Мбайт (17%)
Язык : English
Default : Нет
Forced : Нет
Текст
Идентификатор : 4
Формат : UTF-8
Идентификатор кодека : S_TEXT/UTF8
Идентификатор кодека/Информация : UTF-8 Plain Text
Продолжительность : 2 ч. 16 м.
Битрейт : 39 бит/сек
Count of elements : 1357
Размер потока : 39,8 Кбайт (0%)
Язык : English
Default : Нет
Forced : Нет
Меню
00:00:00.000 : en:00:00:00.000
00:10:25.834 : en:00:10:25.834
00:18:52.465 : en:00:18:52.465
00:30:23.697 : en:00:30:23.697
00:38:20.006 : en:00:38:20.006
00:47:19.628 : en:00:47:19.628
00:58:49.109 : en:00:58:49.109
01:06:19.934 : en:01:06:19.934
01:15:43.247 : en:01:15:43.247
01:23:49.274 : en:01:23:49.274
01:33:11.044 : en:01:33:11.044
01:43:25.866 : en:01:43:25.866
01:51:06.076 : en:01:51:06.076
02:00:32.851 : en:02:00:32.851
02:05:43.745 : en:02:05:43.745
02:16:51.745 : en:02:16:51.745

Скриншоты

[Цитировать]



Показать сообщения:    

Текущее время: 10-Дек 11:57

Часовой пояс: UTC + 3


Вы не можете начинать темы
Вы не можете отвечать на сообщения
Вы не можете редактировать свои сообщения
Вы не можете удалять свои сообщения
Вы не можете голосовать в опросах
Вы не можете прикреплять файлы к сообщениям
Вы не можете скачивать файлы

!ВНИМАНИЕ!
Сайт не предоставляет электронные версии произведений, а занимается лишь коллекционированием и каталогизацией ссылок, присылаемых и публикуемых на форуме нашими читателями. Если вы являетесь правообладателем какого-либо представленного материала и не желаете, чтобы ссылка на него находилась в нашем каталоге, свяжитесь с нами, и мы незамедлительно удалим ее. Файлы для обмена на трекере предоставлены пользователями сайта, и администрация не несет ответственности за их содержание. Просьба не заливать файлы, защищенные авторскими правами, а также файлы нелегального содержания!