[ Сегодня идет свободное скачивание без начисления Download ]


Статистика раздачи
Скачал: [ 5 ]
 
   
 
Top  
 
 
Бэтмен против Супермена: На заре справедливости / Batman v Superman: Dawn of Justice (2016) BDRip 720p | 60 fps | Theatrical Cut
Информация о фильме
Русское название: Бэтмен против Супермена: На заре справедливости
Оригинальное название: Batman v Superman: Dawn of Justice
Год выхода: 2016
Жанр: фантастика, боевик, приключения
Режиссер: Зак Снайдер
Выпущено: США
Продолжительность: 02:31:40
Перевод: Дублированный
В ролях: Генри Кавилл, Бен Аффлек, Галь Гадот, Джейсон Момоа, Эми Адамс, Джесси Айзенберг, Лорен Кохэн, Джеффри Дин Морган, Эзра Миллер, Дайан Лэйн
Сюжет фильма
Бэтмен и Супермен – борцы за справедливость и защитники добра. Странным оказалось то, что между двумя супергероями возникла неприязнь, и стала нарастать конфронтация. Цели благие, но способы их достижения - разные. Супермен предпочитает действовать с размахом, зачастую игнорируя масштабные разрушения и случайные жертвы. Громкое эхо его подвигов докатилось и до правительства. Его начинают считать потенциально опасным. Бэтмен же действует осторожно и осмотрительно. В глазах Супермена он мягкотелый слабак. Так двое хороших парней постепенно перестали понимать друг друга. Оказалось, что их конфликт на руку третьей стороне – Лексу Лютеру. Вынашивая планы мирового господства, он решил создать оружие огромной разрушительной мощи и уничтожить не только Супермена но и других существующих людей-мутантов, остававшихся в «тени», но ведущих борьбу со злом. И это вполне реально, ведь злодей получил доступ к инопланетному камню Криптониту…
Смогут ли супергерои объединиться перед лицом общей угрозы, или амбиции каждого станут выше голоса разума?
Файл
Качество: BDRip 720p (исходник Blu-ray Disc)
Контейнер: MKV (расширение файла)
Видео: 1280x534, 5343 Кбит/сек, 59.940 кадр/сек, AVC, x264, High@L4, 2.40:1, 0.130 Бит/[Пиксели*Кадры]
Аудио 1: AC-3, 448 Кбит/сек, 6 канала(ов), 48,0 КГц - Дублированный / Русский
Аудио 2: AC-3, 640 Кбит/сек, 6 канала(ов), 48,0 КГц - Оригинал / Английский
Субтитры: Русские | Полные, Английские | Полные
Форсированные субтитры: Русские
Чаптеры (Главы): Есть

Автор Рипа:

MediaInfo

Format : Matroska
Format version : Version 2
File size : 6.95 GiB
Duration : 2h 31mn
Overall bit rate : 6 562 Kbps
Movie name : Batman v Superman: Dawn of Justice.(2016).BDRip.720p.[envy].[60fps]
Encoded date : UTC 2016-07-23 19:39:50
Writing application : mkvmerge v5.8.0 ('No Sleep / Pillow') built on Sep 2 2012 15:37:04
Writing library : libebml v1.2.3 + libmatroska v1.3.0
Video
ID : 1
Format : AVC
Format/Info : Advanced Video Codec
Format profile : High@L4.1
Format settings, CABAC : Yes
Format settings, ReFrames : 9 frames
Codec ID : V_MPEG4/ISO/AVC
Duration : 2h 31mn
Bit rate : 5 343 Kbps
Width : 1 280 pixels
Height : 534 pixels
Display aspect ratio : 2.40:1
Frame rate mode : Constant
Frame rate : 59.940 (60000/1001) fps
Color space : YUV
Chroma subsampling : 4:2:0
Bit depth : 8 bits
Scan type : Progressive
Bits/(Pixel*Frame) : 0.130
Stream size : 5.66 GiB (81%)
Title : Batman v Superman: Dawn of Justice.(2016).BDRip.720p.[envy].[60fps]
Writing library : x264 core 146 r2538 121396c
Encoding settings : cabac=1 / ref=9 / deblock=1:0:0 / analyse=0x3:0x113 / me=umh / subme=9 / psy=1 / psy_rd=1.00:0.00 / mixed_ref=1 / me_range=24 / chroma_me=1 / trellis=2 / 8x8dct=1 / cqm=0 / deadzone=21,11 / fast_pskip=0 / chroma_qp_offset=-2 / threads=12 / lookahead_threads=1 / sliced_threads=0 / nr=0 / decimate=1 / interlaced=0 / bluray_compat=0 / constrained_intra=0 / bframes=5 / b_pyramid=2 / b_adapt=2 / b_bias=0 / direct=3 / weightb=1 / open_gop=0 / weightp=2 / keyint=250 / keyint_min=25 / scenecut=40 / intra_refresh=0 / rc_lookahead=40 / rc=crf / mbtree=0 / crf=17.5 / qcomp=0.60 / qpmin=0 / qpmax=69 / qpstep=4 / vbv_maxrate=14000 / vbv_bufsize=14000 / crf_max=0.0 / nal_hrd=none / filler=0 / ip_ratio=1.40 / pb_ratio=1.30 / aq=3:1.00
Language : English
Default : Yes
Forced : No
Audio #1
ID : 2
Format : AC-3
Format/Info : Audio Coding 3
Mode extension : CM (complete main)
Format settings, Endianness : Big
Codec ID : A_AC3
Duration : 2h 31mn
Bit rate mode : Constant
Bit rate : 448 Kbps
Channel(s) : 6 channels
Channel positions : Front: L C R, Side: L R, LFE
Sampling rate : 48.0 KHz
Frame rate : 31.250 fps (1536 spf)
Compression mode : Lossy
Stream size : 486 MiB (7%)
Title : Dub
Language : Russian
Default : Yes
Forced : No
Audio #2
ID : 3
Format : AC-3
Format/Info : Audio Coding 3
Mode extension : CM (complete main)
Format settings, Endianness : Big
Codec ID : A_AC3
Duration : 2h 31mn
Bit rate mode : Constant
Bit rate : 640 Kbps
Channel(s) : 6 channels
Channel positions : Front: L C R, Side: L R, LFE
Sampling rate : 48.0 KHz
Frame rate : 31.250 fps (1536 spf)
Compression mode : Lossy
Stream size : 694 MiB (10%)
Title : Eng
Language : English
Default : No
Forced : No
Text #1
ID : 4
Format : UTF-8
Codec ID : S_TEXT/UTF8
Codec ID/Info : UTF-8 Plain Text
Title : Rus forced
Language : Russian
Default : Yes
Forced : Yes
Text #2
ID : 5
Format : UTF-8
Codec ID : S_TEXT/UTF8
Codec ID/Info : UTF-8 Plain Text
Title : Rus full
Language : Russian
Default : No
Forced : No
Text #3
ID : 6
Format : UTF-8
Codec ID : S_TEXT/UTF8
Codec ID/Info : UTF-8 Plain Text
Title : Eng full
Language : English
Default : No
Forced : No
Menu
00:00:00.000 : en:00:00:00.000
00:09:50.048 : en:00:09:50.048
00:20:45.786 : en:00:20:45.786
00:29:58.672 : en:00:29:58.672
00:38:46.616 : en:00:38:46.616
00:49:25.921 : en:00:49:25.921
00:59:21.558 : en:00:59:21.558
01:10:06.202 : en:01:10:06.202
01:21:15.120 : en:01:21:15.120
01:30:00.312 : en:01:30:00.312
01:38:20.812 : en:01:38:20.812
01:49:57.382 : en:01:49:57.382
02:01:49.052 : en:02:01:49.052
02:10:40.416 : en:02:10:40.416
02:18:41.313 : en:02:18:41.313
02:23:50.372 : en:02:23:50.372

[Цитировать]



Показать сообщения:    

Текущее время: 09-Дек 06:59

Часовой пояс: UTC + 3


Вы не можете начинать темы
Вы не можете отвечать на сообщения
Вы не можете редактировать свои сообщения
Вы не можете удалять свои сообщения
Вы не можете голосовать в опросах
Вы не можете прикреплять файлы к сообщениям
Вы не можете скачивать файлы

!ВНИМАНИЕ!
Сайт не предоставляет электронные версии произведений, а занимается лишь коллекционированием и каталогизацией ссылок, присылаемых и публикуемых на форуме нашими читателями. Если вы являетесь правообладателем какого-либо представленного материала и не желаете, чтобы ссылка на него находилась в нашем каталоге, свяжитесь с нами, и мы незамедлительно удалим ее. Файлы для обмена на трекере предоставлены пользователями сайта, и администрация не несет ответственности за их содержание. Просьба не заливать файлы, защищенные авторскими правами, а также файлы нелегального содержания!