[ Сегодня идет свободное скачивание без начисления Download ]


Статистика раздачи
Нет
 
   
 
Top  
 
 
-Yngwie Malmsteen - World On fire--
Год издания: 2016
Страна: Sweden
Жанр: Neoclassical Metal
Продолжительность: 00:44:30-Лейбл издания: King Records
Страна-выпуска диска: Japan
Номер по каталогу: KICP1779-Формат: FLAC
Битрейт аудио: Lossless
Тип рипа: image +.cue
Наличие сканов в содержимом раздачи: да
-

Трэклист


01. World On Fire (4:32)
02. Sorcery (2:18)
03. Abandon (2:20)
04. Top Down, Foot Down (4:19)
05. Lost In The Machine (5:17)
06. Largo - EBM (5:14)
07. No Rest For The Wicked (3:12)
08. Soldier (5:33)
09. Duf 1220 (3:17)
10. Abandon (Slight Return) (2:31)
11. Nacht Musik (5:57)
-

Лог создания рипа

Exact Audio Copy V1.1 from 23. June 2015
EAC extraction logfile from 20. June 2016, 6:59
Yngwie Malmsteen / World On fire
Used drive  : PIONEER BD-RW   BDR-209D   Adapter: 0  ID: 5
Read mode               : Secure
Utilize accurate stream : Yes
Defeat audio cache      : Yes
Make use of C2 pointers : No
Read offset correction                      : 667
Overread into Lead-In and Lead-Out          : No
Fill up missing offset samples with silence : Yes
Delete leading and trailing silent blocks   : No
Null samples used in CRC calculations       : Yes
Used interface                              : Installed external ASPI interface
Used output format              : User Defined Encoder
Selected bitrate                : 768 kBit/s
Quality                         : High
Add ID3 tag                     : No
Command line compressor         : C:\Program Files (x86)\Exact Audio Copy\FLAC\FLAC.EXE
Additional command line options : -6 -V -T "ARTIST=%artist%" -T "TITLE=%title%" -T "ALBUM=%albumtitle%" -T "DATE=%year%" -T "TRACKNUMBER=%tracknr%" -T "GENRE=%genre%" -T "COMMENT=%comment%" -T "BAND=%albuminterpret%" -T "ALBUMARTIST=%albuminterpret%" -T "COMPOSER=%composer%" %haslyrics%--tag-from-file=LYRICS="%lyricsfile%"%haslyrics% -T "DISCNUMBER=%cdnumber%" -T "TOTALDISCS=%totalcds%" -T "TOTALTRACKS=%numtracks%" %hascover%--picture="%coverfile%"%hascover% %source% -o %dest%
TOC of the extracted CD
     Track |   Start  |  Length  | Start sector | End sector
    ---------------------------------------------------------
        1  |  0:00.00 |  4:32.22 |         0    |    20421
        2  |  4:32.22 |  2:18.28 |     20422    |    30799
        3  |  6:50.50 |  2:19.55 |     30800    |    41279
        4  |  9:10.30 |  4:18.60 |     41280    |    60689
        5  | 13:29.15 |  5:16.59 |     60690    |    84448
        6  | 18:45.74 |  5:13.67 |     84449    |   107990
        7  | 23:59.66 |  3:11.67 |    107991    |   122382
        8  | 27:11.58 |  5:32.59 |    122383    |   147341
        9  | 32:44.42 |  3:17.22 |    147342    |   162138
       10  | 36:01.64 |  2:31.27 |    162139    |   173490
       11  | 38:33.16 |  5:56.68 |    173491    |   200258
Range status and errors
Selected range
     Filename E:\MUSIC\Yngwie Malmsteen - World On fire.wav
     Peak level 100.0 %
     Extraction speed 2.8 X
     Range quality 100.0 %
     Test CRC 6A8AE1C2
     Copy CRC 6A8AE1C2
     Copy OK
No errors occurred
AccurateRip summary
Track  1  not present in database
Track  2  not present in database
Track  3  not present in database
Track  4  not present in database
Track  5  not present in database
Track  6  not present in database
Track  7  not present in database
Track  8  not present in database
Track  9  not present in database
Track 10  not present in database
Track 11  not present in database
None of the tracks are present in the AccurateRip database
End of status report

Индексная карта (non-compilant .cue)

REM GENRE "Heavy Metal"
REM DATE 2016
REM DISCID 7B0A6E0B
REM COMMENT "ExactAudioCopy v1.1"
PERFORMER "Yngwie Malmsteen"
TITLE "World On fire"
FILE "Yngwie Malmsteen - World On fire.flac" WAVE
  TRACK 01 AUDIO
    TITLE "World On Fire"
    PERFORMER "Yngwie Malmsteen"
    INDEX 01 00:00:00
  TRACK 02 AUDIO
    TITLE "Sorcery"
    PERFORMER "Yngwie Malmsteen"
    INDEX 01 04:32:22
  TRACK 03 AUDIO
    TITLE "Abandon"
    PERFORMER "Yngwie Malmsteen"
    INDEX 01 06:50:50
  TRACK 04 AUDIO
    TITLE "Top Down, Foot Down"
    PERFORMER "Yngwie Malmsteen"
    INDEX 01 09:10:30
  TRACK 05 AUDIO
    TITLE "Lost In The Machine"
    PERFORMER "Yngwie Malmsteen"
    INDEX 01 13:29:15
  TRACK 06 AUDIO
    TITLE "Largo - EBM"
    PERFORMER "Yngwie Malmsteen"
    INDEX 01 18:45:74
  TRACK 07 AUDIO
    TITLE "No Rest For The Wicked"
    PERFORMER "Yngwie Malmsteen"
    INDEX 01 23:59:66
  TRACK 08 AUDIO
    TITLE "Soldier"
    PERFORMER "Yngwie Malmsteen"
    INDEX 01 27:11:58
  TRACK 09 AUDIO
    TITLE "Duf 1220"
    PERFORMER "Yngwie Malmsteen"
    INDEX 01 32:44:42
  TRACK 10 AUDIO
    TITLE "Abandon (Slight Return)"
    PERFORMER "Yngwie Malmsteen"
    INDEX 01 36:01:64
  TRACK 11 AUDIO
    TITLE "Nacht Musik"
    PERFORMER "Yngwie Malmsteen"
    INDEX 01 38:33:16
--

[Цитировать]



Показать сообщения:    

Текущее время: 07-Дек 15:35

Часовой пояс: UTC + 3


Вы не можете начинать темы
Вы не можете отвечать на сообщения
Вы не можете редактировать свои сообщения
Вы не можете удалять свои сообщения
Вы не можете голосовать в опросах
Вы не можете прикреплять файлы к сообщениям
Вы не можете скачивать файлы

!ВНИМАНИЕ!
Сайт не предоставляет электронные версии произведений, а занимается лишь коллекционированием и каталогизацией ссылок, присылаемых и публикуемых на форуме нашими читателями. Если вы являетесь правообладателем какого-либо представленного материала и не желаете, чтобы ссылка на него находилась в нашем каталоге, свяжитесь с нами, и мы незамедлительно удалим ее. Файлы для обмена на трекере предоставлены пользователями сайта, и администрация не несет ответственности за их содержание. Просьба не заливать файлы, защищенные авторскими правами, а также файлы нелегального содержания!