[ Сегодня идет свободное скачивание без начисления Download ]


Статистика раздачи
Нет
 
   
 
Top  
 
 
-Rage - Black In Mind (2CD)(2015, 20th Anniversary edition)--
Год издания: 1995
Год переиздания:2015
Страна: Germany
Жанр: Heavy Metal
Продолжительность: 02:01:57-Лейбл издания: Dr. Bones
Страна-выпуска диска: Germany
Номер по каталогу: LB 15C1989-Формат: FLAC
Битрейт аудио: Lossless
Тип рипа: image +.cue
Наличие сканов в содержимом раздачи: да
-

Трэклист

CD 1 | 01:12:25

01. Black In Mind (4:08)
02. The Crawling Chaos (4:46)
03. Alive But Dead (4:56)
04. Sent By The Devil (5:01)
05. Shadow Out Of Time (5:39)
06. A Spider's Web (3:21)
07. In A Nameless Time (10:12)
08. The Icecold Hand Of Destiny (4:06)
09. Forever (4:44)
10. Until I Die (4:34)
11. My Rage (2:42)
12. The Price Of War (4:16)
13. Start! (4:34)
14. All This Time (5:34)
15. Chase (Japan Bonus Track) (3:52)

CD 2 | 00:49:32

01. Black In Mind (Demo) (4:06)
02. Sent By The Devil (Demo) (5:04)
03. Shadow Out Of Time (Demo) (5:31)
04. Alive But Dead (Demo) (5:47)
05. A Spiders Web (Demo) (3:25)
06. All This Time (Acoustic Version) (Demo) (5:23)
07. Another Wasted Day (Demo) (5:37)
08. Transfigured Night (Demo) (4:12)
09. The Watcher (Demo) (5:04)
10. Through The Barricades (Demo) (5:24)
-

Лог создания рипа

CD 1

Exact Audio Copy V1.1 from 23. June 2015
EAC extraction logfile from 1. March 2016, 18:24
Rage / Black In Mind - 20th Anniversary
Used drive  : PIONEER DVD-RW  DVR-221   Adapter: 1  ID: 0
Read mode               : Secure
Utilize accurate stream : Yes
Defeat audio cache      : Yes
Make use of C2 pointers : No
Read offset correction                      : 6
Overread into Lead-In and Lead-Out          : No
Fill up missing offset samples with silence : Yes
Delete leading and trailing silent blocks   : No
Null samples used in CRC calculations       : Yes
Used interface                              : Installed external ASPI interface
Used output format              : User Defined Encoder
Selected bitrate                : 1024 kBit/s
Quality                         : High
Add ID3 tag                     : No
Command line compressor         : C:\Program Files\Exact Audio Copy\Flac\flac.exe
Additional command line options : -V -8 -T "Date=%year%" -T "Genre=%genre%" %source%
TOC of the extracted CD
     Track |   Start  |  Length  | Start sector | End sector
    ---------------------------------------------------------
        1  |  0:00.00 |  4:08.36 |         0    |    18635
        2  |  4:08.36 |  4:46.07 |     18636    |    40092
        3  |  8:54.43 |  4:56.27 |     40093    |    62319
        4  | 13:50.70 |  5:00.43 |     62320    |    84862
        5  | 18:51.38 |  5:39.08 |     84863    |   110295
        6  | 24:30.46 |  3:21.10 |    110296    |   125380
        7  | 27:51.56 | 10:11.59 |    125381    |   171264
        8  | 38:03.40 |  4:05.43 |    171265    |   189682
        9  | 42:09.08 |  4:44.30 |    189683    |   211012
       10  | 46:53.38 |  4:34.15 |    211013    |   231577
       11  | 51:27.53 |  2:42.08 |    231578    |   243735
       12  | 54:09.61 |  4:15.56 |    243736    |   262916
       13  | 58:25.42 |  4:33.39 |    262917    |   283430
       14  | 62:59.06 |  5:33.61 |    283431    |   308466
       15  | 68:32.67 |  3:52.00 |    308467    |   325866
Range status and errors
Selected range
     Filename F:\Program files\CD's Images\Hellwings71\RBIM15\CD1\Rage - Black In Mind - 20th Anniversary.wav
     Peak level 100.0 %
     Extraction speed 8.2 X
     Range quality 99.9 %
     Test CRC 8FE3AE98
     Copy CRC 8FE3AE98
     Copy OK
No errors occurred
AccurateRip summary
Track  1  not present in database
Track  2  not present in database
Track  3  not present in database
Track  4  not present in database
Track  5  not present in database
Track  6  not present in database
Track  7  not present in database
Track  8  not present in database
Track  9  not present in database
Track 10  not present in database
Track 11  not present in database
Track 12  not present in database
Track 13  not present in database
Track 14  not present in database
Track 15  not present in database
None of the tracks are present in the AccurateRip database
End of status report
---- CUETools DB Plugin V2.1.6
[CTDB TOCID: sCUkkaiNZyXZUJrZ5eSRRtZHX7E-] found
Submit result: sCUkkaiNZyXZUJrZ5eSRRtZHX7E- has been confirmed
Track | CTDB Status
  1   | (1/1) Accurately ripped
  2   | (1/1) Accurately ripped
  3   | (1/1) Accurately ripped
  4   | (1/1) Accurately ripped
  5   | (1/1) Accurately ripped
  6   | (1/1) Accurately ripped
  7   | (1/1) Accurately ripped
  8   | (1/1) Accurately ripped
  9   | (1/1) Accurately ripped
10   | (1/1) Accurately ripped
11   | (1/1) Accurately ripped
12   | (1/1) Accurately ripped
13   | (1/1) Accurately ripped
14   | (1/1) Accurately ripped
15   | (1/1) Accurately ripped

CD 2

Exact Audio Copy V1.1 from 23. June 2015
EAC extraction logfile from 1. March 2016, 18:44
Rage / Black In Mind - 20th Anniversary
Used drive  : PIONEER DVD-RW  DVR-221   Adapter: 1  ID: 0
Read mode               : Secure
Utilize accurate stream : Yes
Defeat audio cache      : Yes
Make use of C2 pointers : No
Read offset correction                      : 6
Overread into Lead-In and Lead-Out          : No
Fill up missing offset samples with silence : Yes
Delete leading and trailing silent blocks   : No
Null samples used in CRC calculations       : Yes
Used interface                              : Installed external ASPI interface
Used output format              : User Defined Encoder
Selected bitrate                : 1024 kBit/s
Quality                         : High
Add ID3 tag                     : No
Command line compressor         : C:\Program Files\Exact Audio Copy\Flac\flac.exe
Additional command line options : -V -8 -T "Date=%year%" -T "Genre=%genre%" %source%
TOC of the extracted CD
     Track |   Start  |  Length  | Start sector | End sector
    ---------------------------------------------------------
        1  |  0:00.00 |  4:06.04 |         0    |    18453
        2  |  4:06.04 |  5:04.12 |     18454    |    41265
        3  |  9:10.16 |  5:30.39 |     41266    |    66054
        4  | 14:40.55 |  5:46.47 |     66055    |    92051
        5  | 20:27.27 |  3:24.74 |     92052    |   107425
        6  | 23:52.26 |  5:23.27 |    107426    |   131677
        7  | 29:15.53 |  5:37.28 |    131678    |   156980
        8  | 34:53.06 |  4:11.56 |    156981    |   175861
        9  | 39:04.62 |  5:03.55 |    175862    |   198641
       10  | 44:08.42 |  5:23.53 |    198642    |   222919
Range status and errors
Selected range
     Filename F:\Program files\CD's Images\Hellwings71\RBIM15\CD2\Rage - Black In Mind - 20th Anniversary.wav
     Peak level 100.0 %
     Extraction speed 6.9 X
     Range quality 100.0 %
     Test CRC D205F0F9
     Copy CRC D205F0F9
     Copy OK
No errors occurred
AccurateRip summary
Track  1  not present in database
Track  2  not present in database
Track  3  not present in database
Track  4  not present in database
Track  5  not present in database
Track  6  not present in database
Track  7  not present in database
Track  8  not present in database
Track  9  not present in database
Track 10  not present in database
None of the tracks are present in the AccurateRip database
End of status report
---- CUETools DB Plugin V2.1.6
[CTDB TOCID: NO215eJ.R5967QvnBmjV5oPAcTs-] found
Submit result: NO215eJ.R5967QvnBmjV5oPAcTs- has been confirmed
Track | CTDB Status
  1   | (1/1) Accurately ripped
  2   | (1/1) Accurately ripped
  3   | (1/1) Accurately ripped
  4   | (1/1) Accurately ripped
  5   | (1/1) Accurately ripped
  6   | (1/1) Accurately ripped
  7   | (1/1) Accurately ripped
  8   | (1/1) Accurately ripped
  9   | (1/1) Accurately ripped
10   | (1/1) Accurately ripped

Индексная карта (non-compilant .cue)

CD 1

REM DATE 2015
REM DISCID C210F80F
REM COMMENT ExactAudioCopy v1.1
PERFORMER "Rage"
TITLE "Black in mind (20th anniversary edition) (CD 1)"
FILE "Rage - Black In Mind - 20th Anniversary.flac" WAVE
  TRACK 01 AUDIO
    TITLE "Black In Mind"
    INDEX 01 00:00:00
  TRACK 02 AUDIO
    TITLE "The Crawling Chaos"
    INDEX 01 04:08:36
  TRACK 03 AUDIO
    TITLE "Alive But Dead"
    INDEX 01 08:54:43
  TRACK 04 AUDIO
    TITLE "Sent By The Devil"
    INDEX 01 13:50:70
  TRACK 05 AUDIO
    TITLE "Shadow Out Of Time"
    INDEX 01 18:51:38
  TRACK 06 AUDIO
    TITLE "A Spider's Web"
    INDEX 01 24:30:46
  TRACK 07 AUDIO
    TITLE "In A Nameless Time"
    INDEX 01 27:51:56
  TRACK 08 AUDIO
    TITLE "The Icecold Hand Of Destiny"
    INDEX 01 38:03:40
  TRACK 09 AUDIO
    TITLE "Forever"
    INDEX 01 42:09:08
  TRACK 10 AUDIO
    TITLE "Until I Die"
    INDEX 01 46:53:38
  TRACK 11 AUDIO
    TITLE "My Rage"
    INDEX 01 51:27:53
  TRACK 12 AUDIO
    TITLE "The Price Of War"
    INDEX 01 54:09:61
  TRACK 13 AUDIO
    TITLE "Start!"
    INDEX 01 58:25:42
  TRACK 14 AUDIO
    TITLE "All This Time"
    INDEX 01 62:59:06
  TRACK 15 AUDIO
    TITLE "Chase (Japan Bonus Track)"
    INDEX 01 68:32:67

CD 2

REM DISCID 880B9C0A
REM COMMENT ExactAudioCopy v1.1
PERFORMER "Rage"
TITLE "Black in mind (20th anniversary edition) (CD 2)"
FILE "Rage - Black In Mind - 20th Anniversary.flac" WAVE
  TRACK 01 AUDIO
    TITLE "Black In Mind (Demo)"
    INDEX 01 00:00:00
  TRACK 02 AUDIO
    TITLE "Sent By The Devil (Demo)"
    INDEX 01 04:06:04
  TRACK 03 AUDIO
    TITLE "Shadow Out Of Time (Demo)"
    INDEX 00 09:08:16
    INDEX 01 09:10:16
  TRACK 04 AUDIO
    TITLE "Alive But Dead (Demo)"
    INDEX 00 14:38:55
    INDEX 01 14:40:55
  TRACK 05 AUDIO
    TITLE "A Spiders Web (Demo)"
    INDEX 00 20:25:27
    INDEX 01 20:27:27
  TRACK 06 AUDIO
    TITLE "All This Time (Acoustic Version) (Demo)"
    INDEX 00 23:50:26
    INDEX 01 23:52:26
  TRACK 07 AUDIO
    TITLE "Another Wasted Day (Demo)"
    INDEX 00 29:13:53
    INDEX 01 29:15:53
  TRACK 08 AUDIO
    TITLE "Transfigured Night (Demo)"
    INDEX 00 34:51:06
    INDEX 01 34:53:06
  TRACK 09 AUDIO
    TITLE "The Watcher (Demo)"
    INDEX 00 39:02:62
    INDEX 01 39:04:62
  TRACK 10 AUDIO
    TITLE "Through The Barricades (Demo)"
    INDEX 00 44:06:42
    INDEX 01 44:08:42
--

[Цитировать]



Показать сообщения:    

Текущее время: 04-Дек 23:24

Часовой пояс: UTC + 3


Вы не можете начинать темы
Вы не можете отвечать на сообщения
Вы не можете редактировать свои сообщения
Вы не можете удалять свои сообщения
Вы не можете голосовать в опросах
Вы не можете прикреплять файлы к сообщениям
Вы не можете скачивать файлы

!ВНИМАНИЕ!
Сайт не предоставляет электронные версии произведений, а занимается лишь коллекционированием и каталогизацией ссылок, присылаемых и публикуемых на форуме нашими читателями. Если вы являетесь правообладателем какого-либо представленного материала и не желаете, чтобы ссылка на него находилась в нашем каталоге, свяжитесь с нами, и мы незамедлительно удалим ее. Файлы для обмена на трекере предоставлены пользователями сайта, и администрация не несет ответственности за их содержание. Просьба не заливать файлы, защищенные авторскими правами, а также файлы нелегального содержания!