[ Сегодня идет свободное скачивание без начисления Download ]


Статистика раздачи
Нет
 
   
 
Top  
 
 
-Roxette - Good Karma--
Год издания: 2016
Страна: Sweden
Жанр: Pop Rock
Продолжительность: 00:38:05-Лейбл издания: Roxette Recordings
Страна-выпуска диска: EU
Номер по каталогу: 5054197105524-Формат: FLAC
Битрейт аудио: Lossless
Тип рипа: image +.cue
Наличие сканов в содержимом раздачи: да
-

Трэклист


01. Why Dontcha? (2:46)
02. It Just Happens (3:46)
03. Good Karma (3:19)
04. This One (3:12)
05. You Make It Sound So Simple (3:42)
06. From A Distance (3:31)
07. Some Other Summer (3:09)
08. Why Don't You Bring Me Flowers? (3:32)
09. You Can Do This To Me Anymore (3:50)
10. 20 BPM (3:48)
11. April Clouds (3:30)
-

Лог создания рипа

Exact Audio Copy V1.1 from 23. June 2015
EAC extraction logfile from 3. June 2016, 0:58
Roxette / Good Karma
Used drive  : HL-DT-STDVDRAM GH24NSD1   Adapter: 0  ID: 0
Read mode               : Secure
Utilize accurate stream : Yes
Defeat audio cache      : Yes
Make use of C2 pointers : No
Read offset correction                      : 6
Overread into Lead-In and Lead-Out          : No
Fill up missing offset samples with silence : Yes
Delete leading and trailing silent blocks   : No
Null samples used in CRC calculations       : Yes
Used interface                              : Installed external ASPI interface
Used output format : Internal WAV Routines
Sample format      : 44.100 Hz; 16 Bit; Stereo
TOC of the extracted CD
     Track |   Start  |  Length  | Start sector | End sector
    ---------------------------------------------------------
        1  |  0:00.00 |  2:45.63 |         0    |    12437
        2  |  2:45.63 |  3:46.00 |     12438    |    29387
        3  |  6:31.63 |  3:19.09 |     29388    |    44321
        4  |  9:50.72 |  3:11.56 |     44322    |    58702
        5  | 13:02.53 |  3:42.17 |     58703    |    75369
        6  | 16:44.70 |  3:30.48 |     75370    |    91167
        7  | 20:15.43 |  3:08.62 |     91168    |   105329
        8  | 23:24.30 |  3:32.30 |    105330    |   121259
        9  | 26:56.60 |  3:50.18 |    121260    |   138527
       10  | 30:47.03 |  3:48.34 |    138528    |   155661
       11  | 34:35.37 |  3:30.00 |    155662    |   171411
Range status and errors
Selected range
     Filename H:\SPOTNET\Roxette - Good Karma (EAC)\Roxette - Good Karma.wav
     Peak level 100.0 %
     Extraction speed 6.3 X
     Range quality 99.9 %
     Test CRC 8C794E73
     Copy CRC 8C794E73
     Copy OK
No errors occurred
AccurateRip summary
Track  1  not present in database
Track  2  not present in database
Track  3  not present in database
Track  4  not present in database
Track  5  not present in database
Track  6  not present in database
Track  7  not present in database
Track  8  not present in database
Track  9  not present in database
Track 10  not present in database
Track 11  not present in database
None of the tracks are present in the AccurateRip database
End of status report

Индексная карта (non-compilant .cue)

REM GENRE Pop
REM DATE 2016
REM DISCID 9508ED0B
REM COMMENT "ExactAudioCopy v1.1"
PERFORMER "Roxette"
TITLE "Good Karma"
FILE "Roxette - Good Karma.flac" WAVE
  TRACK 01 AUDIO
    TITLE "Why Dontcha?"
    PERFORMER "Roxette"
    INDEX 01 00:00:00
  TRACK 02 AUDIO
    TITLE "It Just Happens"
    PERFORMER "Roxette"
    INDEX 01 02:45:63
  TRACK 03 AUDIO
    TITLE "Good Karma"
    PERFORMER "Roxette"
    INDEX 01 06:31:63
  TRACK 04 AUDIO
    TITLE "This One"
    PERFORMER "Roxette"
    INDEX 01 09:50:72
  TRACK 05 AUDIO
    TITLE "You Make It Sound So Simple"
    PERFORMER "Roxette"
    INDEX 01 13:02:53
  TRACK 06 AUDIO
    TITLE "From A Distance"
    PERFORMER "Roxette"
    INDEX 01 16:44:70
  TRACK 07 AUDIO
    TITLE "Some Other Summer"
    PERFORMER "Roxette"
    INDEX 01 20:15:43
  TRACK 08 AUDIO
    TITLE "Why Don't You Bring Me Flowers?"
    PERFORMER "Roxette"
    INDEX 01 23:24:30
  TRACK 09 AUDIO
    TITLE "You Can Do This To Me Anymore"
    PERFORMER "Roxette"
    INDEX 01 26:56:60
  TRACK 10 AUDIO
    TITLE "20 BPM"
    PERFORMER "Roxette"
    INDEX 01 30:47:03
  TRACK 11 AUDIO
    TITLE "April Clouds"
    PERFORMER "Roxette"
    INDEX 01 34:35:37
--

[Цитировать]



Показать сообщения:    

Текущее время: 10-Дек 04:11

Часовой пояс: UTC + 3


Вы не можете начинать темы
Вы не можете отвечать на сообщения
Вы не можете редактировать свои сообщения
Вы не можете удалять свои сообщения
Вы не можете голосовать в опросах
Вы не можете прикреплять файлы к сообщениям
Вы не можете скачивать файлы

!ВНИМАНИЕ!
Сайт не предоставляет электронные версии произведений, а занимается лишь коллекционированием и каталогизацией ссылок, присылаемых и публикуемых на форуме нашими читателями. Если вы являетесь правообладателем какого-либо представленного материала и не желаете, чтобы ссылка на него находилась в нашем каталоге, свяжитесь с нами, и мы незамедлительно удалим ее. Файлы для обмена на трекере предоставлены пользователями сайта, и администрация не несет ответственности за их содержание. Просьба не заливать файлы, защищенные авторскими правами, а также файлы нелегального содержания!