[ Сегодня идет свободное скачивание без начисления Download ]


Статистика раздачи
Нет
 
   
 
Top  
 
 
Трафик / Traffic (2016) HDRip - Производство: Индия
Жанр: Драма, Триллер
Режиссер: Раджеш Пиллаи
Актеры: Джимми Шергил, Манодж Баджпаи, Дивья Дутта, Парамбрата Чаттерджи, Прасенджит Чаттерджи, Сачин Кхедекар, Киту Гидвани, Викрам Гокхале, Амол Парашар, Вишал Сингх, Дивья Датта, Никита Тукрал, Рича Панаи, Кавери
Описание:
История основана на реальных событиях. Дочь популярного актера нуждается в донорском сердце. По несчастливой случайности, корреспондент-стажер, который собирался брать интервью у актера, попал в страшное ДТП. Однако, чтобы спасти девочку одного желания мало. Нужно еще доставить сердце до больницы. А из-за плохих погодных условий транспортировать его вертолетом не представляется возможным. Что же делать? Приходится доверить судьбу девочки трафику.

Возраст: этот продукт не был классифицирован
Рейтинг MPAA: этот продукт не был классифицирован
Мировая премьера : 6 мая 2016
Релиз от:
Продолжительность: 01:44:26
Качество видео: HDRip Сэмпл
Перевод: Любительский (многоголосый, закадровый)- Fanstudio
Автор перевода: Риппер, синхрон. звука: soso4eg
Видео: Xvid, 720x304, ~1752 kbps
Аудио: MP3, 2 ch, 160 kbps

Mediainfo:

Общее
Полное имя                               : D:\Traffic.2016.L.HDRip.avi
Формат                                   : AVI
Формат/Информация                        : Audio Video Interleave
Размер файла                             : 1,40 Гбайт
Продолжительность                        : 1 ч. 44 м.
Общий поток                              : 1922 Кбит/сек
Название фильма                          : Traffic.2016.L.HDRip.XviD.BwTorrents
Режиссёр                                 : soso4eg@BwTorrents
Программа кодирования                    : VirtualDubMod 1.5.10.2 (build 2540/release)
Формат оригинала/Имя                     : Hindi
Авторское право                          : BwTorrents
Примечание                               : L - FAN Studio
Видео
Идентификатор                            : 0
Формат                                   : MPEG-4 Visual
Профиль формата                          : Advanced Simple@L5
Параметр BVOP формата                    : 1
Параметр QPel формата                    : Нет
Параметр GMC формата                     : Без точки перехода
Параметр матрицы формата                 : Default (H.263)
Идентификатор кодека                     : XVID
Идентификатор кодека/Подсказка           : XviD
Продолжительность                        : 1 ч. 44 м.
Битрейт                                  : 1752 Кбит/сек
Ширина                                   : 720 пикселей
Высота                                   : 304 пикселя
Соотношение сторон                       : 2,35:1
Частота кадров                           : 24,000 кадра/сек
Цветовое пространство                    : YUV
Субдискретизация насыщенности            : 4:2:0
Битовая глубина                          : 8 бит
Тип развёртки                            : Прогрессивная
Метод сжатия                             : С потерями
Бит/(Пиксели*Кадры)                      : 0.334
Размер потока                            : 1,28 Гбайт (91%)
Библиотека кодирования                   : XviD 1.2.1 (UTC 2008-12-04)
Аудио
Идентификатор                            : 1
Формат                                   : MPEG Audio
Версия формата                           : Version 1
Профиль формата                          : Layer 3
Идентификатор кодека                     : 55
Идентификатор кодека/Подсказка           : MP3
Продолжительность                        : 1 ч. 44 м.
Вид битрейта                             : Постоянный
Битрейт                                  : 160 Кбит/сек
Каналы                                   : 2 канала
Частота                                  : 48,0 КГц
Метод сжатия                             : С потерями
Задержка видео                           : 48 мс.
Размер потока                            : 120 Мбайт (8%)
Выравнивание                             : Соединение по промежуткам
Продолжительность промежутка             : 42  мс. (1,00 видеокадр)
Время предзагрузки промежутка            : 504  мс.
Скриншоты:

Дополнительные скриншоты:

[Цитировать]



Показать сообщения:    

Текущее время: 10-Дек 00:19

Часовой пояс: UTC + 3


Вы не можете начинать темы
Вы не можете отвечать на сообщения
Вы не можете редактировать свои сообщения
Вы не можете удалять свои сообщения
Вы не можете голосовать в опросах
Вы не можете прикреплять файлы к сообщениям
Вы не можете скачивать файлы

!ВНИМАНИЕ!
Сайт не предоставляет электронные версии произведений, а занимается лишь коллекционированием и каталогизацией ссылок, присылаемых и публикуемых на форуме нашими читателями. Если вы являетесь правообладателем какого-либо представленного материала и не желаете, чтобы ссылка на него находилась в нашем каталоге, свяжитесь с нами, и мы незамедлительно удалим ее. Файлы для обмена на трекере предоставлены пользователями сайта, и администрация не несет ответственности за их содержание. Просьба не заливать файлы, защищенные авторскими правами, а также файлы нелегального содержания!