[ Сегодня идет свободное скачивание без начисления Download ]


Статистика раздачи
Нет
 
   
 
Top  
 
 
Скейтбордисты / Grind (2003) Информация о фильме
Название: Скейтбордисты
Оригинальное название: Grind
Год выхода: 2003
Жанр: комедия, приключения, спорт
Режиссер: Кэйси Ла Скала
В ролях: Майк Фогель, Винс Вьелуф, Адам Броди, Джои Керн, Дженнифер Моррисон, Джейсон Лондон, Саммер Элтис, Бэм Марджера, Эрин Мерфи, Барон Ла Скала
О фильме:
Четверо друзей — фанатов скейтбордов — решают добиться известности. Они организуют свою команду и пускаются в авантюрное путешествие по местам соревнований и тусовок. Пережив массу приключений, они добиваются признания.

Страна: США
Студия: Asphalt Productions, Gaylord Films, Gerber Pictures, Pandora Cinema
Продолжительность: 01:44:52
Перевод: Профессиональный (двухголосый, закадровый) SDI Media + Профессиональный (двухголосый, закадровый)
Файл
Формат: Matroska
Видео: 1910x1080 at 23.976 fps, MPEG-4 AVC, ~5000 kbps avg
Аудио#1: Russian: 48 kHz, AC3 Dolby Digital, 2/0 (L,R) ch, ~192.00 kbps avg |Двухголосый закадровый, SDI Media|
Аудио#2: Russian: 48 kHz, AC3 Dolby Digital, 3/2 (L,C,R,l,r) + LFE ch, ~384.00 kbps avg |Двухголосый закадровый|
Аудио#3: English: 48 kHz, AC3 Dolby Digital, 3/2 (L,C,R,l,r) + LFE ch, ~384.00 kbps avg
Субтитры: English
***Сохранены и подписаны оригинальные главы.
***Релиз - Pigy.

MI

Общее
Уникальный идентификатор : 191332098388978434619329257274159874483 (0x8FF138C553D357528FD2314D6E0F41B3)
Полное имя : Grind 2003 WEB-DL 1080p.mkv
Формат : Matroska
Версия формата : Version 4 / Version 2
Размер файла : 4,44 Гбайт
Продолжительность : 1 ч. 44 м.
Общий поток : 6055 Кбит/сек
Дата кодирования : UTC 2015-10-22 11:42:12
Программа кодирования : mkvmerge v6.1.0 ('Old Devil') built on Mar 2 2013 14:32:37
Библиотека кодирования : libebml v1.3.0 + libmatroska v1.4.0
Видео
Идентификатор : 1
Формат : AVC
Формат/Информация : Advanced Video Codec
Профиль формата : High@L4
Параметр CABAC формата : Да
Параметр ReFrames формата : 4 кадра
Параметр GOP формата : N=2
Идентификатор кодека : V_MPEG4/ISO/AVC
Продолжительность : 1 ч. 44 м.
Битрейт : 4975 Кбит/сек
Ширина : 1910 пикселей
Высота : 1080 пикселей
Соотношение сторон : 16:9
Режим частоты кадров : Постоянный
Частота кадров : 23,976 кадра/сек
Цветовое пространство : YUV
Субдискретизация насыщенности : 4:2:0
Битовая глубина : 8 бит
Тип развёртки : Прогрессивная
Бит/(Пиксели*Кадры) : 0.101
Размер потока : 3,64 Гбайт (82%)
Язык : English
Default : Да
Forced : Нет
Цветовой диапазон : Limited
Основные цвета : BT.709
Характеристики трансфера : BT.709
Коэффициенты матрицы : BT.709
Аудио #1
Идентификатор : 2
Формат : AC-3
Формат/Информация : Audio Coding 3
Расширение режима : CM (complete main)
Параметр Endianness формата : Big
Идентификатор кодека : A_AC3
Продолжительность : 1 ч. 44 м.
Вид битрейта : Постоянный
Битрейт : 192 Кбит/сек
Каналы : 2 канала
Расположение каналов : Front: L R
Частота : 48,0 КГц
Метод сжатия : С потерями
Размер потока : 144 Мбайт (3%)
Заголовок : SDI Media
Язык : Russian
Default : Да
Forced : Нет
Аудио #2
Идентификатор : 3
Формат : AC-3
Формат/Информация : Audio Coding 3
Расширение режима : CM (complete main)
Параметр Endianness формата : Big
Идентификатор кодека : A_AC3
Продолжительность : 1 ч. 44 м.
Вид битрейта : Постоянный
Битрейт : 384 Кбит/сек
Каналы : 6 каналов
Расположение каналов : Front: L C R, Side: L R, LFE
Частота : 48,0 КГц
Метод сжатия : С потерями
Размер потока : 288 Мбайт (6%)
Заголовок : DVO
Язык : Russian
Default : Нет
Forced : Нет
Аудио #3
Идентификатор : 4
Формат : AC-3
Формат/Информация : Audio Coding 3
Расширение режима : CM (complete main)
Параметр Endianness формата : Big
Идентификатор кодека : A_AC3
Продолжительность : 1 ч. 44 м.
Вид битрейта : Постоянный
Битрейт : 384 Кбит/сек
Каналы : 6 каналов
Расположение каналов : Front: L C R, Side: L R, LFE
Частота : 48,0 КГц
Метод сжатия : С потерями
Размер потока : 288 Мбайт (6%)
Язык : English
Default : Нет
Forced : Нет
Текст
Идентификатор : 5
Формат : UTF-8
Идентификатор кодека : S_TEXT/UTF8
Идентификатор кодека/Информация : UTF-8 Plain Text
Язык : English
Default : Нет
Forced : Нет
Меню
00:00:00.000 : en:Customer relations (Credits).
00:05:30.000 : en:School or the store.
00:08:44.000 : en:Chili N Such.
00:11:41.000 : en:Masters of the vert.
00:15:05.000 : en:Tape vault.
00:19:25.000 : en:Hitting the road.
00:21:45.000 : en:Sweet Lou's in.
00:24:44.000 : en:Failing to register.
00:29:56.000 : en:Party crashers.
00:33:15.000 : en:Super Duper dancing.
00:38:39.000 : en:Pink Motel.
00:43:07.000 : en:Bed buds.
00:45:09.000 : en:Free food.
00:49:16.000 : en:A day late.
00:51:55.000 : en:Demo without freebies.
00:54:31.000 : en:Deserted in the desert.
00:57:41.000 : en:A sign and a lizard.
01:00:38.000 : en:Jamie.
01:03:58.000 : en:No go no 2.
01:06:09.000 : en:Turbo jump.
01:10:53.000 : en:Team vibe.
01:15:08.000 : en:Clowning with Matt's family.
01:20:33.000 : en:Wish come true.
01:23:14.000 : en:Finding Jamie out.
01:27:23.000 : en:Super Duper time.
01:29:45.000 : en:Vert showdown.
01:37:05.000 : en:Bus stop.
01:39:53.000 : en:Outtake End Credits.

Скриншоты

[Цитировать]



Показать сообщения:    

Текущее время: 11-Дек 03:23

Часовой пояс: UTC + 3


Вы не можете начинать темы
Вы не можете отвечать на сообщения
Вы не можете редактировать свои сообщения
Вы не можете удалять свои сообщения
Вы не можете голосовать в опросах
Вы не можете прикреплять файлы к сообщениям
Вы не можете скачивать файлы

!ВНИМАНИЕ!
Сайт не предоставляет электронные версии произведений, а занимается лишь коллекционированием и каталогизацией ссылок, присылаемых и публикуемых на форуме нашими читателями. Если вы являетесь правообладателем какого-либо представленного материала и не желаете, чтобы ссылка на него находилась в нашем каталоге, свяжитесь с нами, и мы незамедлительно удалим ее. Файлы для обмена на трекере предоставлены пользователями сайта, и администрация не несет ответственности за их содержание. Просьба не заливать файлы, защищенные авторскими правами, а также файлы нелегального содержания!