[ Сегодня идет свободное скачивание без начисления Download ]


Статистика раздачи
Нет
 
   
 
Top  
 
 
Геннадий Власевский | Уверенный пользователь Фотошопа (2013) PCRec - Автор (режиссер): Власевский Геннадий
Жанр: Графика, фотошоп
Описание:
Для кого мой курс. Если вы только, что купили свою первую мыльницу и хотите освоить основные приёмы работы с мировым лидером в области растровой графики, программой Фотошоп, то этот курс для вас. Если же вы опытный фотограф, весь день работаете с Photoshop и хотите повысить эффективность, узнать новые приёмы и алгоритмы, то этот курс тоже для вас.
Продолжительность: 126:00:00
Качество видео: PCRec
Видео: tscc, 1234x800, ~968 Kbps
Аудио: MP3, 1 ch, 96 Kbps

Mediainfo:

Общее
Полное имя : G:\Уверенный пользователь фотошоп\Part 1\Disk 1\training1\dj.avi
Формат : AVI
Формат/Информация : Audio Video Interleave
Размер файла : 117 Мбайт
Продолжительность : 15 м.
Общий поток : 1068 Кбит/сек
Видео
Идентификатор : 0
Формат : TechSmith
Идентификатор кодека : tscc
Идентификатор кодека/Информация : TechSmith Screen Capture
Продолжительность : 15 м.
Битрейт : 968 Кбит/сек
Ширина : 1234 пикселя
Высота : 800 пикселей
Соотношение сторон : 3:2
Частота кадров : 10,000 кадров/сек
Бит/(Пиксели*Кадры) : 0.098
Размер потока : 106 Мбайт (91%)
Аудио
Идентификатор : 1
Формат : MPEG Audio
Версия формата : Version 1
Профиль формата : Layer 3
Идентификатор кодека : 55
Идентификатор кодека/Подсказка : MP3
Продолжительность : 15 м.
Вид битрейта : Постоянный
Битрейт : 96,0 Кбит/сек
Каналы : 1 канал
Частота : 44,1 КГц
Метод сжатия : С потерями
Размер потока : 10,6 Мбайт (9%)
Выравнивание : Разделение по промежуткам
Продолжительность промежутка : 1000 мс. (10,00 видеокадров)
Время предзагрузки промежутка : 750 мс.

Дополнительно

Фактически этот курс интегрирован сразу в три версии Adobe Photoshop - Cs5, Cs6 и СС потому будет понятен пользователям всех трёх версий этой программы. Дело в том, что технический прогресс не стоит на месте: курс писался с конца февраля 2012 г, когда оптимальной для пользователя была версия Cs5. Однако уже в апреле 2012 выходит версия Cs6, которую я также не мог не затронуть. А в июне 2013 выходит уже Photoshop CC. В тоже время в курсе не происходит скачков, которые бы затрудняли восприятие: функционал всех версий освещен максимально полно. И хорошо, что так получилось. Потому, что, судя по опросу на моём сайте: photoshop Cs5 у 32,8% пользователей. Photoshop Cs6 у 46,5% пользователей. Photoshop CC у 20,5% пользователей.
- Первая часть курса - записана на Adobe Photoshop Cs5 со вставками уроков, выполненных в Cs6.
- Вторая часть курса – записана на Adobe Photoshop Cs6 со вставками уроков, выполненных в Cs5.
- Третья часть курса - записана на Adobe Photoshop CC. Со вставками уроков из Cs5 и Cs6.
Таким образом, он максимально интегрирован. Единственное условие для его освоения: на вашем компьютере должна быть установлена полноценная, версия программы, а не ее детсадовские сборки и аналоги, которые попросту не имеют большинства необходимых функций и инструментов.
В основе курса не отдельные уроки, которые охватывают разные области знаний редактора, а полновесные блоки информации. Так при объяснении темы «Инструменты выделения» нельзя не затронуть ряд команд, которые помогают быстро выделять объекты, среди которых функции «Уточнить край», «Цветовой диапазон», «Модификация» и ряд других. Нельзя не затронуть темы основ фотомонтажа, замены фона, создания коллажа. Нельзя рассказать обо всех этих функциях за шесть минут. Именно поэтому я предлагаю вам целый блок видео-уроков под названием «Все о фотомонтаже и выделении объектов». Каждый новый урок вытекает из предыдущего. Все логично, систематизировано. Все так, как должно быть. Принцип стройной подачи материала – залог ее успешного усвоения.
По тому же принципу курс разделен на три части, где мы идем от простого к сложному, постепенно углубляясь в саму суть редактора. Ещё и поэтому я не стал делать 3 разных курса, а сделал 3 части, которые объединены одним названием.
Скриншоты:

[Цитировать]



Показать сообщения:    

Текущее время: 04-Дек 15:14

Часовой пояс: UTC + 3


Вы не можете начинать темы
Вы не можете отвечать на сообщения
Вы не можете редактировать свои сообщения
Вы не можете удалять свои сообщения
Вы не можете голосовать в опросах
Вы не можете прикреплять файлы к сообщениям
Вы не можете скачивать файлы

!ВНИМАНИЕ!
Сайт не предоставляет электронные версии произведений, а занимается лишь коллекционированием и каталогизацией ссылок, присылаемых и публикуемых на форуме нашими читателями. Если вы являетесь правообладателем какого-либо представленного материала и не желаете, чтобы ссылка на него находилась в нашем каталоге, свяжитесь с нами, и мы незамедлительно удалим ее. Файлы для обмена на трекере предоставлены пользователями сайта, и администрация не несет ответственности за их содержание. Просьба не заливать файлы, защищенные авторскими правами, а также файлы нелегального содержания!