[ Сегодня идет свободное скачивание без начисления Download ]


Статистика раздачи
Нет
 
   
 
Top  
 
 
Дом в конце улицы / House at the End of the Street (2012) BDRip 720p Информация о фильме
Название: Дом в конце улицы
Оригинальное название: House at the End of the Street
Год выхода: 2012
Жанр: триллер, ужасы
Режиссер: Марк Тондерай
В ролях: Дженнифер Лоуренс, Макс Тириот, Элизабет Шу, Джил Беллоуз, Ева Линк, Нолан Фанк, Элли МакДональд, Джордан Хэйес, Криста Бриджес, Джеймс Томас и др.
О фильме: Переехав жить в небольшой провинциальный город, Сара и ее дочь еще не догадываются, что вскоре окажутся в эпицентре ужаса…

Страна: Канада, США
Студия: Relativity Media, FilmNation Entertainment, A Bigger Boat
Продолжительность: 01:41:46.350
Перевод: Профессиональный (дублированный)
Оригинальная аудиодорожка: Английская
Субтитры: Русские (Forced, Full), английские (Full, SDH)
Файл
Кодек: MPEG-4
Качество: BDRip 720p
Видео: 8535 kbps / 1280x534p / 23,976 fps / 2.40:1 / High@L4.1
Аудио 1: Русский / DTS Audio / 5.1 / 48 kHz / 1536 kbps / 16-bit / Дубляж
Аудио 2: English / DTS Audio / 5.1 / 48 kHz / 1536 kbps / 24-bit / Оригинал

Скриншоты

MediaInfo

Дом в конце улицы (House at the End of the Street) 2012, США, Канада, ужасы, триллер, Unrated BDRip 720p GORESEWAGE.mkv
General
Unique ID : 194231290441810000764892920429512508544 (0x921F95F99A4D6CFEA7C40EDB76384480)
Complete name : Дом в конце улицы (House at the End of the Street) 2012, США, Канада, ужасы, триллер, Unrated BDRip 720p GORESEWAGE.mkv
Format : Matroska
Format version : Version 4 / Version 2
File size : 8.38 GiB
Duration : 1h 41mn
Overall bit rate : 11.8 Mbps
Movie name : GORESEWAGE
Encoded date : UTC 2013-04-11 16:01:27
Writing application : mkvmerge v6.0.0 ('Coming Up For Air') built on Jan 20 2013 09:52:00
Writing library : libebml v1.3.0 + libmatroska v1.4.0
Video #1
ID : 1
Format : AVC
Format/Info : Advanced Video Codec
Format profile : High@L4.1
Format settings, CABAC : Yes
Format settings, ReFrames : 12 frames
Codec ID : V_MPEG4/ISO/AVC
Duration : 1h 41mn
Bit rate : 8 535 Kbps
Width : 1 280 pixels
Height : 534 pixels
Display aspect ratio : 2.40:1
Frame rate mode : Constant
Frame rate : 23.976 fps
Color space : YUV
Chroma subsampling : 4:2:0
Bit depth : 8 bits
Scan type : Progressive
Bits/(Pixel*Frame) : 0.521
Stream size : 6.07 GiB (72%)
Title : GORESEWAGE
Writing library : x264 core 120 r2164 da19765
Encoding settings : cabac=1 / ref=12 / deblock=1:-3:-3 / analyse=0x3:0x113 / me=tesa / subme=11 / psy=1 / psy_rd=0.98:0.00 / mixed_ref=1 / me_range=64 / chroma_me=1 / trellis=2 / 8x8dct=1 / cqm=0 / deadzone=21,11 / fast_pskip=0 / chroma_qp_offset=-2 / threads=12 / sliced_threads=0 / nr=0 / decimate=1 / interlaced=0 / bluray_compat=0 / constrained_intra=0 / bframes=8 / b_pyramid=2 / b_adapt=2 / b_bias=0 / direct=3 / weightb=1 / open_gop=0 / weightp=2 / keyint=250 / keyint_min=25 / scenecut=40 / intra_refresh=0 / rc=crf / mbtree=0 / crf=16.5 / qcomp=0.80 / qpmin=0 / qpmax=69 / qpstep=4 / ip_ratio=1.40 / pb_ratio=1.30 / aq=1:0.70
Language : English
Default : Yes
Forced : No
Audio #2
ID : 2
Format : DTS
Format/Info : Digital Theater Systems
Codec ID : A_DTS
Duration : 1h 41mn
Bit rate mode : Constant
Bit rate : 1 510 Kbps
Channel(s) : 6 channels
Channel positions : Front: L C R, Side: L R, LFE
Sampling rate : 48.0 KHz
Bit depth : 16 bits
Compression mode : Lossy
Stream size : 1.07 GiB (13%)
Title : Профессиональный (дублированный)
Language : Russian
Default : Yes
Forced : No
Audio #3
ID : 3
Format : DTS
Format/Info : Digital Theater Systems
Codec ID : A_DTS
Duration : 1h 41mn
Bit rate mode : Constant
Bit rate : 1 510 Kbps
Channel(s) : 6 channels
Channel positions : Front: L C R, Side: L R, LFE
Sampling rate : 48.0 KHz
Bit depth : 24 bits
Compression mode : Lossy
Stream size : 1.07 GiB (13%)
Title : Оригинал
Language : English
Default : No
Forced : No
Text #4
ID : 4
Format : UTF-8
Codec ID : S_TEXT/UTF8
Codec ID/Info : UTF-8 Plain Text
Title : Forced (GORENOISE)
Language : Russian
Default : Yes
Forced : No
Text #5
ID : 5
Format : UTF-8
Codec ID : S_TEXT/UTF8
Codec ID/Info : UTF-8 Plain Text
Title : Full
Language : Russian
Default : No
Forced : No
Text #6
ID : 6
Format : UTF-8
Codec ID : S_TEXT/UTF8
Codec ID/Info : UTF-8 Plain Text
Title : Full
Language : English
Default : No
Forced : No
Text #7
ID : 7
Format : UTF-8
Codec ID : S_TEXT/UTF8
Codec ID/Info : UTF-8 Plain Text
Title : SDH
Language : English
Default : No
Forced : No
Menu
00:00:00.000 : en:00:00:00.000
00:04:30.729 : en:00:04:30.729
00:08:55.160 : en:00:08:55.160
00:13:02.949 : en:00:13:02.949
00:17:14.450 : en:00:17:14.450
00:23:05.342 : en:00:23:05.342
00:28:31.752 : en:00:28:31.752
00:35:37.719 : en:00:35:37.719
00:39:06.427 : en:00:39:06.427
00:42:46.772 : en:00:42:46.772
00:46:20.444 : en:00:46:20.444
00:51:48.772 : en:00:51:48.772
00:59:14.342 : en:00:59:14.342
01:03:59.085 : en:01:03:59.085
01:07:26.334 : en:01:07:26.334
01:11:07.972 : en:01:11:07.972
01:15:20.808 : en:01:15:20.808
01:18:41.091 : en:01:18:41.091
01:23:02.978 : en:01:23:02.978
01:26:48.787 : en:01:26:48.787
01:30:13.825 : en:01:30:13.825
01:31:26.731 : en:01:31:26.731
01:35:31.601 : en:01:35:31.601

[Цитировать]



Показать сообщения:    

Текущее время: 10-Дек 13:42

Часовой пояс: UTC + 3


Вы не можете начинать темы
Вы не можете отвечать на сообщения
Вы не можете редактировать свои сообщения
Вы не можете удалять свои сообщения
Вы не можете голосовать в опросах
Вы не можете прикреплять файлы к сообщениям
Вы не можете скачивать файлы

!ВНИМАНИЕ!
Сайт не предоставляет электронные версии произведений, а занимается лишь коллекционированием и каталогизацией ссылок, присылаемых и публикуемых на форуме нашими читателями. Если вы являетесь правообладателем какого-либо представленного материала и не желаете, чтобы ссылка на него находилась в нашем каталоге, свяжитесь с нами, и мы незамедлительно удалим ее. Файлы для обмена на трекере предоставлены пользователями сайта, и администрация не несет ответственности за их содержание. Просьба не заливать файлы, защищенные авторскими правами, а также файлы нелегального содержания!