[ Сегодня идет свободное скачивание без начисления Download ]


Статистика раздачи
Нет
 
   
 
Top  
 
 
Моя собачья жизнь / Mitt liv som hund (1985) Страна: Швеция
Производство: Svensk Filmindustri (SF) AB, FilmTeknik
Год выпуска: 1985
Жанр: драма, комедия
Продолжительность: 01:41:57
Режиссер: Лассе Халльстрём
Авторы сценария: Лассе Халльстрём, Брассе Брэннстрём, Пер Берглунд
В ролях: Антон Гланзелиус, Томас фон Брёмссен, Анки Лиден, Мелинда Киннаман, Кикки Рундгрен, Леннарт Юльстрём, Инг-Мари Карлссон, Лейф Эриксон
Описание: Одиннадцатилетний Ингмар живёт вместе с матерью, которая больна туберкулезом, и со старшим братом. Отец по делам службы находится в Африке. Чтобы избавить мать от забот и дать ей немного подлечиться, парнишку отправляют на лето к дяде в отдалённый посёлок, где всё ему чуждо и непривычно. Но именно там Ингмар знакомится с Сагой, своей ровесницей, воспринимая её искреннюю влюблённость просто как мимолётную детскую причуду...

Перевод: Профессиональный (полное дублирование) | советский дубляж
Субтитры: английские, русские-Качество: BDRip 720p
Формат: МКV
Видео кодек: AVC
Аудио кодек: АС3
Видео: 1280x768 (1.667), 23.976 fps, MPEG-4 AVC ~5 499 kbps avg
Аудио №1: 48.0 kHz, AC3 Dolby Digital, 1.0 ch, ~640 kbps / 16 bits | SWE
Аудио №2: 48.0 kHz, AC3 Dolby Digital, 2/0 (L,R) ch, ~192 kbps | RUS / аудиодорожка №2 русский перевод
Формат субтитров: UTF-8 Plain Text
Дата премьеры (мир): 12 декабря 1985-
Премия Золотой глобус, 1988 год
» Лучший фильм на иностранном языке — «Швеция»

Media Info

General
Complete name : BDRip My Life as a Dog.mkv
Format : Matroska
File size : 4.51 GiB
Duration : 1h 41mn
Overall bit rate : 6 335 Kbps
Encoded date : UTC 2011-09-11 10:55:36
Writing application : mkvmerge v2.2.0 ('Turn It On Again') built on Mar 4 2008 12:58:26
Writing library : libebml v0.7.7 + libmatroska v0.8.1
Video
ID : 1
Format : AVC
Format/Info : Advanced Video Codec
Format profile : High@L4.1
Format settings, CABAC : Yes
Format settings, ReFrames : 5 frames
Codec ID : V_MPEG4/ISO/AVC
Duration : 1h 41mn
Bit rate : 5 499 Kbps
Width : 1 280 pixels
Height : 768 pixels
Display aspect ratio : 1.667
Frame rate : 23.976 fps
Color space : YUV
Chroma subsampling : 4:2:0
Bit depth : 8 bits
Scan type : Progressive
Bits/(Pixel*Frame) : 0.233
Stream size : 3.83 GiB (85%)
Writing library : x264 core 116 r2074 2641b9e
Encoding settings : cabac=1 / ref=5 / deblock=1:0:0 / analyse=0x3:0x133 / me=umh / subme=7 / psy=1 / psy_rd=1.00:0.00 / mixed_ref=1 / me_range=16 / chroma_me=1 / trellis=1 / 8x8dct=1 / cqm=0 / deadzone=21,11 / fast_pskip=1 / chroma_qp_offset=-2 / threads=12 / sliced_threads=0 / nr=0 / decimate=1 / interlaced=0 / bluray_compat=0 / constrained_intra=0 / bframes=3 / b_pyramid=2 / b_adapt=1 / b_bias=0 / direct=1 / weightb=1 / open_gop=0 / weightp=2 / keyint=250 / keyint_min=23 / scenecut=40 / intra_refresh=0 / rc_lookahead=40 / rc=2pass / mbtree=1 / bitrate=5499 / ratetol=1.0 / qcomp=0.60 / qpmin=10 / qpmax=51 / qpstep=4 / cplxblur=20.0 / qblur=0.5 / ip_ratio=1.40 / aq=1:1.00
Audio #1
ID : 2
Format : AC-3
Format/Info : Audio Coding 3
Mode extension : CM (complete main)
Codec ID : A_AC3
Duration : 1h 41mn
Bit rate mode : Constant
Bit rate : 640 Kbps
Channel(s) : 1 channel
Channel positions : Front: C
Sampling rate : 48.0 KHz
Bit depth : 16 bits
Compression mode : Lossy
Stream size : 467 MiB (10%)
Audio #2
ID : 4
Format : AC-3
Format/Info : Audio Coding 3
Mode extension : CM (complete main)
Codec ID : A_AC3
Duration : 1h 41mn
Bit rate mode : Constant
Bit rate : 192 Kbps
Channel(s) : 2 channels
Channel positions : Front: L R
Sampling rate : 48.0 KHz
Bit depth : 16 bits
Compression mode : Lossy
Stream size : 140 MiB (3%)
Language : Russian
Text #1
ID : 3
Format : UTF-8
Codec ID : S_TEXT/UTF8
Codec ID/Info : UTF-8 Plain Text
Text #2
ID : 5
Format : UTF-8
Codec ID : S_TEXT/UTF8
Codec ID/Info : UTF-8 Plain Text
Language : Russian

Скриншоты

[Цитировать]



Показать сообщения:    

Текущее время: 08-Дек 07:06

Часовой пояс: UTC + 3


Вы не можете начинать темы
Вы не можете отвечать на сообщения
Вы не можете редактировать свои сообщения
Вы не можете удалять свои сообщения
Вы не можете голосовать в опросах
Вы не можете прикреплять файлы к сообщениям
Вы не можете скачивать файлы

!ВНИМАНИЕ!
Сайт не предоставляет электронные версии произведений, а занимается лишь коллекционированием и каталогизацией ссылок, присылаемых и публикуемых на форуме нашими читателями. Если вы являетесь правообладателем какого-либо представленного материала и не желаете, чтобы ссылка на него находилась в нашем каталоге, свяжитесь с нами, и мы незамедлительно удалим ее. Файлы для обмена на трекере предоставлены пользователями сайта, и администрация не несет ответственности за их содержание. Просьба не заливать файлы, защищенные авторскими правами, а также файлы нелегального содержания!