[ Сегодня идет свободное скачивание без начисления Download ]


Статистика раздачи
Нет
 
   
 
Top  
 
 
Экстази / Go (1999) BDRip
Год выпуска: 1999
Жанр: Триллер, Комедия, Криминал
Производство: США
Описание фильма: Утром очаровательная кассирша Рона знакомится со странной парочкой, днем оставляет свою подругу в залог, вечером оказывается в придорожной канаве без признаков жизни. Наркоделец Саймон начинает день в багажнике автомобиля, продолжает его в горящем номере с двумя женщинами и заканчивает гонками без правил на улицах Лас-Вегаса.
Сладкая парочка Зак и Адам целые сутки помогают полиции, мешая всем остальным, за что в конце удостаиваются чести поужинать с полоумным служителем закона. Между тем такие разные истории ожидает один и тот же непредсказуемый финал…
Режиссер: Даг Лайман
Актеры: Кэти Холмс, Сара Полли, Сюзанн Крулл, Десмонд Аскью, Натан Бекстон, Роберт Питерс, Скотт Вульф, Джей Мор, Тимоти Олифэнт, Джоди Бьянка Уайз...
Продолжительность: 01:41:55
Качество видео: BDRip
Перевод: Дублированный
Язык субтитров: Русский, Английский
Вид субтитров: Отдельным файлом

Дата мировой премьеры: 7 апреля 1999
Видеокодек: Xvid
Битрейт видео: ~2033 kbps
Размер кадра: 720x304
Аудио #1: 48 kHz, AC3 Dolby Digital, 3/2 (L,C,R,l,r) + LFE ch, ~384 kbps | Русский (Дублированный)
Аудио #2: 48 kHz, AC3 Dolby Digital, 3/2 (L,C,R,l,r) + LFE ch, ~448 kbps | Английский (Оригинал)
Сэмпл: Ссылка
&

MediaInfo

Общее
Полное имя : D:\Torrent\Go.1999.BDRip\Go.1999.BDRip.avi
Формат : AVI
Формат/Информация : Audio Video Interleave
Профиль формата : OpenDML
Размер файла : 2,05 Гбайт
Продолжительность : 1 ч. 41 м.
Общий поток : 2883 Кбит/сек
Название фильма : Go.1999.BDRip rip by Rulya74
Программа кодирования : VirtualDubModRus 1.5.10.2 (build 2542/release)
Видео
Идентификатор : 0
Формат : MPEG-4 Visual
Профиль формата : Advanced Simple@L5
Параметр BVOP формата : 1
Параметр QPel формата : Нет
Параметр GMC формата : Без точки перехода
Параметр матрицы формата : Выборочная
Режим смешивания : Сжатый битовый поток
Идентификатор кодека : XVID
Идентификатор кодека/Подсказка : XviD
Продолжительность : 1 ч. 41 м.
Битрейт : 2033 Кбит/сек
Ширина : 720 пикселей
Высота : 304 пикселя
Соотношение сторон : 2,35:1
Частота кадров : 23,976 кадра/сек
Цветовое пространство : YUV
Субдискретизация насыщенности : 4:2:0
Битовая глубина : 8 бит
Тип развёртки : Прогрессивная
Метод сжатия : С потерями
Бит/(Пиксели*Кадры) : 0.387
Размер потока : 1,45 Гбайт (71%)
Библиотека кодирования : XviD 73
Аудио #1
Идентификатор : 1
Формат : AC-3
Формат/Информация : Audio Coding 3
Расширение режима : CM (complete main)
Параметр Endianness формата : Big
Идентификатор кодека : 2000
Продолжительность : 1 ч. 41 м.
Вид битрейта : Постоянный
Битрейт : 384 Кбит/сек
Каналы : 6 каналов
Расположение каналов : Front: L C R, Side: L R, LFE
Частота : 48,0 КГц
Битовая глубина : 16 бит
Метод сжатия : С потерями
Размер потока : 280 Мбайт (13%)
Выравнивание : Разделение по промежуткам
Продолжительность промежутка : 42 мс. (1,00 видеокадр)
Время предзагрузки промежутка : 500 мс.
Заголовок : Дублированный
Аудио #2
Идентификатор : 2
Формат : AC-3
Формат/Информация : Audio Coding 3
Расширение режима : CM (complete main)
Параметр Endianness формата : Big
Идентификатор кодека : 2000
Продолжительность : 1 ч. 41 м.
Вид битрейта : Постоянный
Битрейт : 448 Кбит/сек
Каналы : 6 каналов
Расположение каналов : Front: L C R, Side: L R, LFE
Частота : 48,0 КГц
Битовая глубина : 16 бит
Метод сжатия : С потерями
Размер потока : 327 Мбайт (16%)
Выравнивание : Разделение по промежуткам
Продолжительность промежутка : 42 мс. (1,00 видеокадр)
Время предзагрузки промежутка : 500 мс.
Заголовок : Оригинал (Английский)
Скриншоты:

[Цитировать]



Показать сообщения:    

Текущее время: 10-Дек 15:46

Часовой пояс: UTC + 3


Вы не можете начинать темы
Вы не можете отвечать на сообщения
Вы не можете редактировать свои сообщения
Вы не можете удалять свои сообщения
Вы не можете голосовать в опросах
Вы не можете прикреплять файлы к сообщениям
Вы не можете скачивать файлы

!ВНИМАНИЕ!
Сайт не предоставляет электронные версии произведений, а занимается лишь коллекционированием и каталогизацией ссылок, присылаемых и публикуемых на форуме нашими читателями. Если вы являетесь правообладателем какого-либо представленного материала и не желаете, чтобы ссылка на него находилась в нашем каталоге, свяжитесь с нами, и мы незамедлительно удалим ее. Файлы для обмена на трекере предоставлены пользователями сайта, и администрация не несет ответственности за их содержание. Просьба не заливать файлы, защищенные авторскими правами, а также файлы нелегального содержания!