[ Сегодня идет свободное скачивание без начисления Download ]


Статистика раздачи
Нет
 
   
 
Top  
 
 
Конан - Bарвар / Conan the Barbarian«Thief Warrior Gladiator King»
[bd=right]http://torrentsclub.org/pictures/351362dfd618c48396...77ffbb0.jpg[/bd]
Год выпуска: 1982
Страна: USA(США)
Производство: Universal Pictures, Dino De Laurentiis Productions
Жанр: фэнтези, боевик, приключения
Режиссер: Джон Милиус
В ролях: Арнольд Шварценеггер (Conan,), Джеймс Эрл Джонс (Thulsa Doom), Макс фон Сюдов (King Osric), Сэндал Бергман (Valeria), Бен Дэвидсон (Rexor), Кассандра Гава (The Witch), Джерри Лопес (Subotai), Мако (The Wizard, Narrator), Валери Кеннессен (The Princess), Уильям Смит (Conan's Father), Луис Барбу (Red Hair), Франко Колумбу (Pictish Scout)
Перевод: Профессиональный (многоголосый, закадровый)
Субтитры: Отсутствуют
Описание: В детстве Конан стал свидетелем жестокого убийства своих родителей беспощадным Тулса Думом. Его обезумевшие от запаха крови солдаты разорили и сожгли до тла родную деревню Конана. Мальчик выростает в рабстве и превращается в обладающего неимоверной силой и мышечной массой непобедимого воина.
Поклявшись отомстить за родителей он отправляется на поиски своего врага. Его путь полон невероятных приключений, отчаянных поединков, неожиданных встреч и опасностей.
Конан с достоинством проходит все испытания, но сможет ли он победить в последней и самой опасной битве в его жизни, битве с непобедимым Тулса Думом?

[kp]5447[/kp] [imdb]tt0082198[/imdb]
Качество: HDTVRip
Продолжительность: 02:06:23
Формат: AVI
Видео кодек: XviD
Аудио кодек: AC3
Видео: 576x320 (1.80:1), 23.976 fps, XviD build 47 ~689 kbps avg, 0.16 bit/pixel
Аудио: 48 kHz, AC3 Dolby Digital, 2/0 (L,R) ch, ~128.00 kbps avg

Media Info

Video
ID                                       : 0
Format                                   : MPEG-4 Visual
Format profile                           : Advanced [email protected]
Format settings, BVOP                    : 3
Format settings, QPel                    : No
Format settings, GMC                     : No warppoints
Format settings, Matrix                  : Default (H.263)
Codec ID                                 : XVID
Codec ID/Hint                            : XviD
Duration                                 : 2h 6mn
Bit rate                                 : 690 Kbps
Width                                    : 576 pixels
Height                                   : 320 pixels
Display aspect ratio                     : 16:9
Frame rate                               : 23.976 fps
Color space                              : YUV
Chroma subsampling                       : 4:2:0
Bit depth                                : 8 bits
Scan type                                : Progressive
Compression mode                         : Lossy
Bits/(Pixel*Frame)                       : 0.156
Stream size                              : 623 MiB (83%)
Writing library                          : XviD 1.2.0.dev47 (UTC 2006-11-01)
Audio
ID                                       : 1
Format                                   : AC-3
Format/Info                              : Audio Coding 3
Mode extension                           : CM (complete main)
Format settings, Endianness              : Big
Codec ID                                 : 2000
Duration                                 : 2h 6mn
Bit rate mode                            : Constant
Bit rate                                 : 128 Kbps
Channel(s)                               : 2 channels
Channel positions                        : Front: L R
Sampling rate                            : 48.0 KHz
Bit depth                                : 16 bits
Compression mode                         : Lossy
Stream size                              : 116 MiB (15%)
Alignment                                : Split accross interleaves
Interleave, duration                     : 42 ms (1.00 video frame)
Interleave, preload duration             : 500 ms
[th]http://torrentsclub.org/pictures/5d1d96334edf689215...43ed8ac.png[/th]
[th]http://torrentsclub.org/pictures/c1089e57f14a7b1a50...4ab8499.png[/th]
[th]http://torrentsclub.org/pictures/c3626baaefe9223d03...a66f613.png[/th]

[Цитировать]



Показать сообщения:    

Текущее время: 05-Дек 15:37

Часовой пояс: UTC + 3


Вы не можете начинать темы
Вы не можете отвечать на сообщения
Вы не можете редактировать свои сообщения
Вы не можете удалять свои сообщения
Вы не можете голосовать в опросах
Вы не можете прикреплять файлы к сообщениям
Вы не можете скачивать файлы

!ВНИМАНИЕ!
Сайт не предоставляет электронные версии произведений, а занимается лишь коллекционированием и каталогизацией ссылок, присылаемых и публикуемых на форуме нашими читателями. Если вы являетесь правообладателем какого-либо представленного материала и не желаете, чтобы ссылка на него находилась в нашем каталоге, свяжитесь с нами, и мы незамедлительно удалим ее. Файлы для обмена на трекере предоставлены пользователями сайта, и администрация не несет ответственности за их содержание. Просьба не заливать файлы, защищенные авторскими правами, а также файлы нелегального содержания!