[ Сегодня идет свободное скачивание без начисления Download ]


Статистика раздачи
Нет
 
   
 
Top  
 
 
Спрятанный в лесу / Hidden in the Woods (2014) BDRip 1080p Название: Подвиды 3: Жажда крови
Оригинальное название: Hidden in the Woods
Год выхода: 2014
Страна: США, Франция
Студия: Artigo Indie, Blancbiehn Productions, Hackybox Pictures
Продолжительность: 01:30:42
Жанр: триллер, ...
Режиссер: Патрисио Вальядарес
В ролях: Майкл Бин, Джаннин Каспар, Электра Авеллан, Уильям Форсайт, Ник Бейтман, Дженнифер Бланк, Крис Браунинг, Кэйтлин Китс, Эви Томпсон, Кшиштоф Сошинский, Дизел Рамос, ...
Перевод: Авторский (одноголосый, закадровый) Дольский Андрей Игоревич
О фильме: Извращенец и алкоголик Филипп растит в лесной глуши трех своих детей — двух дочерей и умственно отсталого сына. «Растит», конечно, сильно сказано: после того как он убил свою жену, полоумный папаша всячески издевается над детьми, даже насилует девочек. А в их доме свой товар хранят наркоторговцы. Из-за этого-то однажды в лес наведываются полицейские, и пока отец разбирается с ними с помощью бензопилы, детям удается бежать в лес…

Кодек: x264
Качество: BDRip 1080p
Видео: 1920x1080, 10000 kbps, 23,976 fps
Аудио #1: AC-3, 6 ch, 448 kbps (Rus) - AVO Дольский Андрей Игоревич
Аудио #2: DTS, 6 ch, 768 kbps (Eng)
Субтитры: нет
Спасибо за исходник

MediaInfo

x264 [info]: frame I:836 Avg QP:17.11 size:216835
x264 [info]: frame P:32293 Avg QP:20.46 size: 82506
x264 [info]: frame B:97352 Avg QP:22.60 size: 40595
x264 [info]: consecutive B-frames: 3.7% 5.0% 12.7% 21.0% 14.4% 34.4% 4.9% 1.2% 0.9% 0.8% 0.2% 0.2% 0.5%
Общее
Уникальный идентификатор : 189507316463526486363710314205519895565 (0x8E91C81361FC4E25BF78E8920F795C0D)
Полное имя : Спрятанный в лесу (Hidden in the Woods) 2014 BDRip 1080p.mkv
Формат : Matroska
Версия формата : Version 2
Размер файла : 7,10 Гбайт
Продолжительность : 1 ч. 30 м.
Общий поток : 11,2 Мбит/сек
Дата кодирования : UTC 2016-07-21 08:09:02
Программа кодирования : mkvmerge v4.0.0 ('The Stars were mine') сборка от Jun 6 2010 16:18:42
Библиотека кодирования : libebml v1.0.0 + libmatroska v1.0.0
Видео
Идентификатор : 1
Формат : AVC
Формат/Информация : Advanced Video Codec
Профиль формата : [email protected]
Параметр CABAC формата : Да
Параметр ReFrames формата : 4 кадра
Идентификатор кодека : V_MPEG4/ISO/AVC
Продолжительность : 1 ч. 30 м.
Битрейт : 10000 Кбит/сек
Ширина : 1920 пикселей
Высота : 1080 пикселей
Соотношение сторон : 16:9
Режим частоты кадров : Постоянный
Частота кадров : 23,976 (24000/1001) кадра/сек
Цветовое пространство : YUV
Субдискретизация насыщенности : 4:2:0
Битовая глубина : 8 бит
Тип развёртки : Прогрессивная
Бит/(Пиксели*Кадры) : 0.201
Размер потока : 6,19 Гбайт (87%)
Библиотека кодирования : x264 core 146 r2538 121396c
Настройки программы : cabac=1 / ref=4 / deblock=1:-3:-3 / analyse=0x3:0x133 / me=umh / subme=11 / psy=1 / psy_rd=1.00:0.00 / mixed_ref=1 / me_range=32 / chroma_me=1 / trellis=2 / 8x8dct=1 / cqm=0 / deadzone=21,11 / fast_pskip=0 / chroma_qp_offset=-2 / threads=12 / lookahead_threads=2 / sliced_threads=0 / nr=0 / decimate=0 / interlaced=0 / bluray_compat=0 / constrained_intra=0 / bframes=12 / b_pyramid=2 / b_adapt=2 / b_bias=0 / direct=3 / weightb=1 / open_gop=0 / weightp=2 / keyint=240 / keyint_min=23 / scenecut=40 / intra_refresh=0 / rc_lookahead=60 / rc=2pass / mbtree=1 / bitrate=10000 / ratetol=1.0 / qcomp=0.60 / qpmin=0 / qpmax=69 / qpstep=4 / cplxblur=20.0 / qblur=0.5 / ip_ratio=1.40 / aq=1:0.80
Язык : English
Default : Нет
Forced : Нет
Аудио #1
Идентификатор : 2
Формат : AC-3
Формат/Информация : Audio Coding 3
Расширение режима : CM (complete main)
Параметр Endianness формата : Big
Идентификатор кодека : A_AC3
Продолжительность : 1 ч. 30 м.
Вид битрейта : Постоянный
Битрейт : 448 Кбит/сек
Каналы : 6 каналов
Расположение каналов : Front: L C R, Side: L R, LFE
Частота : 48,0 КГц
Частота кадров : 31,250 кадров/сек (1536 spf)
Метод сжатия : С потерями
Размер потока : 291 Мбайт (4%)
Заголовок : AVO Дольский Андрей Игоревич
Язык : Russian
Default : Нет
Forced : Нет
Аудио #2
Идентификатор : 3
Формат : DTS
Формат/Информация : Digital Theater Systems
Режим : 16
Параметр Endianness формата : Big
Идентификатор кодека : A_DTS
Продолжительность : 1 ч. 30 м.
Вид битрейта : Постоянный
Битрейт : 768 Кбит/сек
Каналы : 6 каналов
Расположение каналов : Front: L C R, Side: L R, LFE
Частота : 48,0 КГц
Частота кадров : 93,750 кадра/сек (512 spf)
Битовая глубина : 16 бит
Метод сжатия : С потерями
Размер потока : 498 Мбайт (7%)
Язык : English
Default : Нет
Forced : Нет

Скриншоты


[Цитировать]



Показать сообщения:    

Текущее время: 04-Дек 21:24

Часовой пояс: UTC + 3


Вы не можете начинать темы
Вы не можете отвечать на сообщения
Вы не можете редактировать свои сообщения
Вы не можете удалять свои сообщения
Вы не можете голосовать в опросах
Вы не можете прикреплять файлы к сообщениям
Вы не можете скачивать файлы

!ВНИМАНИЕ!
Сайт не предоставляет электронные версии произведений, а занимается лишь коллекционированием и каталогизацией ссылок, присылаемых и публикуемых на форуме нашими читателями. Если вы являетесь правообладателем какого-либо представленного материала и не желаете, чтобы ссылка на него находилась в нашем каталоге, свяжитесь с нами, и мы незамедлительно удалим ее. Файлы для обмена на трекере предоставлены пользователями сайта, и администрация не несет ответственности за их содержание. Просьба не заливать файлы, защищенные авторскими правами, а также файлы нелегального содержания!