[ Сегодня идет свободное скачивание без начисления Download ]


Статистика раздачи
Нет
 
   
 
Top  
 
 
Гемоглобин / Bleeders (1997) DVDRip-AVC Название: Гемоглобин
Оригинальное название: Bleeders
Год выхода: 1997
Страна: Канада, США
Студия: Fries/Schultz Film Group, Kingsborough Greenlight Pictures
Продолжительность: 01:28:46
Жанр: ужасы, ...
Режиссер: Питер Сватек
В ролях: Рутгер Хауэр — Dr. Marlowe, Рой Дюпюи — John Strauss, Джиллиан Ферраби — Eva Van Daam / Her Twin Brother / John's Twin Sister, Паскаль Грюзейе — Vermeer, Кристин Леман — Kathleen Strauss, Джон Харольд Кэйл — Ferryman, Джоэнна Нойес — Byrde Gordon, Фелиция Шульман — Yolanda, Жанин Терио — Alice Gordon, Мишель Брунет — Ramona, Дэвид Девё — Ben, Спенсер Эванс — Squeakie, Кармен Ферланд — Mrs. Shea, Лени Паркер — Baby Laura, Лиза Бронвин Мур — Toot, Джон Данн-Хилл — Hank Gordon, Джеки Барроуз — Lexie, ...
Перевод:
- Профессиональный (двуголосый, закадровый) DVD Group
- Профессиональный (двуголосый, закадровый) АСГ Видеофильм
- Авторский (одноголосый, закадровый) Кашкин Александр (Первомайский)
О фильме: Начало этой истории было положено более трех веков назад, когда юная красавица Эва Ван Даам сделала своим любовником собственного брата-близнеца и положила начало кровосмешению.
Изгнанные из родной Голландии, обреченные на вымирание из-за необъяснимой мутации, ужасные монстры находят пристанище на заброшенном острове. Уже в наше время разгневанные и напуганные жители острова пытались «стереть с лица земли» страшное семейство, загнав их в подземные катакомбы. Но они выжили, и теперь ими движет жажда крови и мести…

Кодек: x264
Качество: DVDRip-AVC
Видео: 748x572, 3500 kbps, 25 fps
Аудио #1: AC-3, 5 ch, 448 kbps (Rus) - DVO DVD Group
Аудио #2: AC-3, 2 ch, 224 kbps (Rus) - DVO АСГ Видеофильм
Аудио #3: AC-3, 2 ch, 192 kbps (Rus) - AVO Кашкин Александр (Первомайский)
Аудио #4: AC-3, 5 ch, 448 kbps (Eng)
Субтитры: Русские, Английские
Спасибо за исходник

MediaInfo

x264 [info]: frame I:763 Avg QP:12.31 size: 60397
x264 [info]: frame P:26134 Avg QP:14.37 size: 32646
x264 [info]: frame B:106254 Avg QP:16.20 size: 13467
x264 [info]: consecutive B-frames: 1.2% 1.6% 6.4% 15.3% 14.0% 45.0% 5.7% 3.9% 2.7% 0.5% 0.9% 2.6% 0.3%
Общее
Уникальный идентификатор : 179700265188091238109908421199073919035 (0x8731031DD5F2D345B40928EE9690403B)
Полное имя : Гемоглобин (Bleeders) 1997 DVDRip.mkv
Формат : Matroska
Версия формата : Version 2
Размер файла : 2,98 Гбайт
Продолжительность : 1 ч. 28 м.
Общий поток : 4807 Кбит/сек
Дата кодирования : UTC 2016-07-20 06:03:38
Программа кодирования : mkvmerge v4.0.0 ('The Stars were mine') сборка от Jun 6 2010 16:18:42
Библиотека кодирования : libebml v1.0.0 + libmatroska v1.0.0
Видео
Идентификатор : 1
Формат : AVC
Формат/Информация : Advanced Video Codec
Профиль формата : High@L4.1
Параметр CABAC формата : Да
Параметр ReFrames формата : 12 кадров
Идентификатор кодека : V_MPEG4/ISO/AVC
Продолжительность : 1 ч. 28 м.
Битрейт : 3500 Кбит/сек
Ширина : 748 пикселей
Высота : 572 пикселя
Соотношение сторон : 4:3
Режим частоты кадров : Постоянный
Частота кадров : 25,000 кадров/сек
Цветовое пространство : YUV
Субдискретизация насыщенности : 4:2:0
Битовая глубина : 8 бит
Тип развёртки : Прогрессивная
Бит/(Пиксели*Кадры) : 0.327
Размер потока : 2,11 Гбайт (71%)
Библиотека кодирования : x264 core 146 r2538 121396c
Настройки программы : cabac=1 / ref=12 / deblock=1:-3:-3 / analyse=0x3:0x133 / me=umh / subme=11 / psy=1 / psy_rd=1.00:0.00 / mixed_ref=1 / me_range=32 / chroma_me=1 / trellis=2 / 8x8dct=1 / cqm=0 / deadzone=21,11 / fast_pskip=0 / chroma_qp_offset=-2 / threads=12 / lookahead_threads=2 / sliced_threads=0 / nr=0 / decimate=0 / interlaced=0 / bluray_compat=0 / constrained_intra=0 / bframes=12 / b_pyramid=2 / b_adapt=2 / b_bias=0 / direct=3 / weightb=1 / open_gop=0 / weightp=2 / keyint=250 / keyint_min=25 / scenecut=40 / intra_refresh=0 / rc=2pass / mbtree=0 / bitrate=3500 / ratetol=1.0 / qcomp=0.60 / qpmin=0 / qpmax=69 / qpstep=4 / cplxblur=20.0 / qblur=0.5 / ip_ratio=1.40 / pb_ratio=1.30 / aq=1:0.80
Язык : English
Default : Нет
Forced : Нет
Аудио #1
Идентификатор : 2
Формат : AC-3
Формат/Информация : Audio Coding 3
Расширение режима : CM (complete main)
Параметр Endianness формата : Big
Идентификатор кодека : A_AC3
Продолжительность : 1 ч. 28 м.
Вид битрейта : Постоянный
Битрейт : 448 Кбит/сек
Каналы : 5 каналов
Расположение каналов : Front: L C R, Side: L R
Частота : 48,0 КГц
Частота кадров : 31,250 кадров/сек (1536 spf)
Метод сжатия : С потерями
Размер потока : 284 Мбайт (9%)
Заголовок : DVO DVD Group
Язык : Russian
Default : Нет
Forced : Нет
Аудио #2
Идентификатор : 3
Формат : AC-3
Формат/Информация : Audio Coding 3
Расширение режима : CM (complete main)
Параметр Endianness формата : Big
Идентификатор кодека : A_AC3
Продолжительность : 1 ч. 28 м.
Вид битрейта : Постоянный
Битрейт : 224 Кбит/сек
Каналы : 2 канала
Расположение каналов : Front: L R
Частота : 48,0 КГц
Частота кадров : 31,250 кадров/сек (1536 spf)
Метод сжатия : С потерями
Размер потока : 142 Мбайт (5%)
Заголовок : DVO АСГ Видеофильм
Язык : Russian
Default : Нет
Forced : Нет
Аудио #3
Идентификатор : 4
Формат : AC-3
Формат/Информация : Audio Coding 3
Расширение режима : CM (complete main)
Параметр Endianness формата : Big
Идентификатор кодека : A_AC3
Продолжительность : 1 ч. 28 м.
Вид битрейта : Постоянный
Битрейт : 192 Кбит/сек
Каналы : 2 канала
Расположение каналов : Front: L R
Частота : 48,0 КГц
Частота кадров : 31,250 кадров/сек (1536 spf)
Метод сжатия : С потерями
Размер потока : 122 Мбайт (4%)
Заголовок : AVO Кашкин Александр (aka Первомайский)
Язык : Russian
Default : Нет
Forced : Нет
Аудио #4
Идентификатор : 5
Формат : AC-3
Формат/Информация : Audio Coding 3
Расширение режима : CM (complete main)
Параметр Endianness формата : Big
Идентификатор кодека : A_AC3
Продолжительность : 1 ч. 28 м.
Вид битрейта : Постоянный
Битрейт : 448 Кбит/сек
Каналы : 5 каналов
Расположение каналов : Front: L C R, Side: L R
Частота : 48,0 КГц
Частота кадров : 31,250 кадров/сек (1536 spf)
Метод сжатия : С потерями
Размер потока : 284 Мбайт (9%)
Язык : English
Default : Нет
Forced : Нет
Текст #1
Идентификатор : 6
Формат : UTF-8
Идентификатор кодека : S_TEXT/UTF8
Идентификатор кодека/Информация : UTF-8 Plain Text
Язык : Russian
Default : Нет
Forced : Нет
Текст #2
Идентификатор : 7
Формат : UTF-8
Идентификатор кодека : S_TEXT/UTF8
Идентификатор кодека/Информация : UTF-8 Plain Text
Язык : English
Default : Нет
Forced : Нет

Скриншоты


[Цитировать]



Показать сообщения:    

Текущее время: 11-Дек 05:23

Часовой пояс: UTC + 3


Вы не можете начинать темы
Вы не можете отвечать на сообщения
Вы не можете редактировать свои сообщения
Вы не можете удалять свои сообщения
Вы не можете голосовать в опросах
Вы не можете прикреплять файлы к сообщениям
Вы не можете скачивать файлы

!ВНИМАНИЕ!
Сайт не предоставляет электронные версии произведений, а занимается лишь коллекционированием и каталогизацией ссылок, присылаемых и публикуемых на форуме нашими читателями. Если вы являетесь правообладателем какого-либо представленного материала и не желаете, чтобы ссылка на него находилась в нашем каталоге, свяжитесь с нами, и мы незамедлительно удалим ее. Файлы для обмена на трекере предоставлены пользователями сайта, и администрация не несет ответственности за их содержание. Просьба не заливать файлы, защищенные авторскими правами, а также файлы нелегального содержания!