[ Сегодня идет свободное скачивание без начисления Download ]


Статистика раздачи
Нет
 
   
 
Top  
 
 
Подвиды 2: Кровавый камень / Bloodstone: Subspecies II (1993) Название: Подвиды 2: Кровавый камень
Оригинальное название: Bloodstone: Subspecies II
Год выхода: 1993
Страна: США
Студия: Castel Film Romania, Full Moon Entertainment
Продолжительность: 01:26:40
Жанр: ужасы, фэнтези, триллер, ...
Режиссер: Тед Николау
В ролях: Эндерс Хоув, Дэнис Мэри Дафф, Кевин Блэр, Пэмела Гордон, Майкл Дениш, Кевин Спиртас, Мелани Шетнер, Йон Хайдук, Тудорел Филимон, Виорел Команич, Виорел Сергович, ...
Перевод:
- Авторский (одноголосый, закадровый) Гаврилов Андрей Юрьевич (поздний)
- Авторский (одноголосый, закадровый) Гаврилов Андрей Юрьевич (ранний с VHS)
О фильме: Со времени пришествия зла, вампиры прославляют ночь, пируя на крови. Источник их силы заключен в священном кровавом камне. Случайной обладательницей этого камня становится американская туристка, приехавшая в Румынию, известную родину вампиров.
Легендарный вампир Раду преследует девушку. Проходя через чудовищные испытания ей приходится выбирать между смертью и проклятьем…

Кодек: x264
Качество: BDRip 1080p
Видео: 1920x1080, 14000 kbps, 23,976 fps
Аудио #1: AC-3, 2 ch, 256 kbps (Rus) - AVO Гаврилов Андрей Юрьевич New
Аудио #2: AC-3, 2 ch, 192 kbps (Rus) - AVO Гаврилов Андрей Юрьевич Old VHS
Аудио #3: DTS, 6 ch, 1509 kbps (Eng)
Субтитры: Английские

Дополнительная информация

За исходник спасибо - Bess80

MediaInfo

x264 [info]: frame I:724 Avg QP:15.06 size:193943
x264 [info]: frame P:27661 Avg QP:16.96 size: 97473
x264 [info]: frame B:96268 Avg QP:18.78 size: 65006
x264 [info]: consecutive B-frames: 3.1% 2.6% 8.0% 15.9% 13.7% 46.0% 5.7% 1.3% 2.1% 0.4% 0.3% 0.6% 0.3%
Общее
Уникальный идентификатор : 235442041005433135906040921870745194976 (0xB1207CD983993DBE800A09F66897D1E0)
Полное имя : Подвиды 2 Камень крови (Subspecies II Bloodstone) 1993 BDRip 1080p.mkv
Формат : Matroska
Версия формата : Version 2
Размер файла : 9,66 Гбайт
Продолжительность : 1 ч. 26 м.
Общий поток : 16,0 Мбит/сек
Дата кодирования : UTC 2016-07-29 05:52:03
Программа кодирования : mkvmerge v4.0.0 ('The Stars were mine') сборка от Jun 6 2010 16:18:42
Библиотека кодирования : libebml v1.0.0 + libmatroska v1.0.0
Видео
Идентификатор : 1
Формат : AVC
Формат/Информация : Advanced Video Codec
Профиль формата : High@L4.1
Параметр CABAC формата : Да
Параметр ReFrames формата : 4 кадра
Идентификатор кодека : V_MPEG4/ISO/AVC
Продолжительность : 1 ч. 26 м.
Битрейт : 14,0 Мбит/сек
Ширина : 1920 пикселей
Высота : 1080 пикселей
Соотношение сторон : 16:9
Режим частоты кадров : Постоянный
Частота кадров : 23,976 (24000/1001) кадра/сек
Цветовое пространство : YUV
Субдискретизация насыщенности : 4:2:0
Битовая глубина : 8 бит
Тип развёртки : Прогрессивная
Бит/(Пиксели*Кадры) : 0.282
Размер потока : 8,28 Гбайт (86%)
Библиотека кодирования : x264 core 146 r2538 121396c
Настройки программы : cabac=1 / ref=4 / deblock=1:-3:-3 / analyse=0x3:0x133 / me=umh / subme=11 / psy=1 / psy_rd=1.10:0.16 / mixed_ref=1 / me_range=32 / chroma_me=1 / trellis=2 / 8x8dct=1 / cqm=0 / deadzone=21,11 / fast_pskip=0 / chroma_qp_offset=-3 / threads=12 / lookahead_threads=2 / sliced_threads=0 / nr=0 / decimate=0 / interlaced=0 / bluray_compat=0 / constrained_intra=0 / bframes=12 / b_pyramid=2 / b_adapt=2 / b_bias=0 / direct=3 / weightb=1 / open_gop=0 / weightp=2 / keyint=240 / keyint_min=23 / scenecut=40 / intra_refresh=0 / rc_lookahead=60 / rc=2pass / mbtree=0 / bitrate=14000 / ratetol=1.0 / qcomp=0.60 / qpmin=0 / qpmax=69 / qpstep=4 / cplxblur=20.0 / qblur=0.5 / vbv_maxrate=50000 / vbv_bufsize=62500 / nal_hrd=none / filler=0 / ip_ratio=1.40 / pb_ratio=1.30 / aq=1:0.90
Язык : English
Default : Нет
Forced : Нет
Аудио #1
Идентификатор : 2
Формат : AC-3
Формат/Информация : Audio Coding 3
Расширение режима : CM (complete main)
Параметр Endianness формата : Big
Идентификатор кодека : A_AC3
Продолжительность : 1 ч. 26 м.
Вид битрейта : Постоянный
Битрейт : 256 Кбит/сек
Каналы : 2 канала
Расположение каналов : Front: L R
Частота : 48,0 КГц
Частота кадров : 31,250 кадров/сек (1536 spf)
Метод сжатия : С потерями
Размер потока : 159 Мбайт (2%)
Заголовок : AVO Гаврилов Андрей Юрьевич New
Язык : Russian
Default : Нет
Forced : Нет
Аудио #2
Идентификатор : 3
Формат : AC-3
Формат/Информация : Audio Coding 3
Расширение режима : CM (complete main)
Параметр Endianness формата : Big
Идентификатор кодека : A_AC3
Продолжительность : 1 ч. 26 м.
Вид битрейта : Постоянный
Битрейт : 192 Кбит/сек
Каналы : 2 канала
Расположение каналов : Front: L R
Частота : 48,0 КГц
Частота кадров : 31,250 кадров/сек (1536 spf)
Метод сжатия : С потерями
Размер потока : 119 Мбайт (1%)
Заголовок : AVO Гаврилов Андрей Юрьевич Old VHS
Язык : Russian
Default : Нет
Forced : Нет
Аудио #3
Идентификатор : 4
Формат : DTS
Формат/Информация : Digital Theater Systems
Режим : 16
Параметр Endianness формата : Big
Идентификатор кодека : A_DTS
Продолжительность : 1 ч. 26 м.
Вид битрейта : Постоянный
Битрейт : 1509 Кбит/сек
Каналы : 6 каналов
Расположение каналов : Front: L C R, Side: L R, LFE
Частота : 48,0 КГц
Частота кадров : 93,750 кадра/сек (512 spf)
Битовая глубина : 16 бит
Метод сжатия : С потерями
Размер потока : 935 Мбайт (9%)
Язык : English
Default : Нет
Forced : Нет
Текст
Идентификатор : 5
Формат : UTF-8
Идентификатор кодека : S_TEXT/UTF8
Идентификатор кодека/Информация : UTF-8 Plain Text
Заголовок : SDH
Язык : English
Default : Нет
Forced : Нет

Скриншоты


[Цитировать]



Показать сообщения:    

Текущее время: 08-Дек 08:58

Часовой пояс: UTC + 3


Вы не можете начинать темы
Вы не можете отвечать на сообщения
Вы не можете редактировать свои сообщения
Вы не можете удалять свои сообщения
Вы не можете голосовать в опросах
Вы не можете прикреплять файлы к сообщениям
Вы не можете скачивать файлы

!ВНИМАНИЕ!
Сайт не предоставляет электронные версии произведений, а занимается лишь коллекционированием и каталогизацией ссылок, присылаемых и публикуемых на форуме нашими читателями. Если вы являетесь правообладателем какого-либо представленного материала и не желаете, чтобы ссылка на него находилась в нашем каталоге, свяжитесь с нами, и мы незамедлительно удалим ее. Файлы для обмена на трекере предоставлены пользователями сайта, и администрация не несет ответственности за их содержание. Просьба не заливать файлы, защищенные авторскими правами, а также файлы нелегального содержания!