[ Сегодня идет свободное скачивание без начисления Download ]


Статистика раздачи
Нет
 
   
 
Top  
 
 
Эйс Вентура. Розыск домашних животных / Ace Ventura: Pet Detective

»Год выпуска: 1994
»Страна: США
»Производство: Warner Brothers
»Жанр: комедия
»Режиссёр: Том Шедьяк
»В ролях: Джим Кэрри (...Эйс Вентура), Шон Янг, Кортни Кокс, Тони Лок, Дэн Марино, Нобли Уиллингем, Джон Каподиче, Рэйнор Шайн, Трой Ивэнс, Удо Кир, Дэвид Маргулис, Ребекка Ферратти, Роберт Феррелл, Уилл Никербокер, Фрэнк Адонис, Тини Рон
»Перевод 1: Профессиональный (полное дублирование)
»Перевод 2: Профессиональный (многоголосый закадровый)
»Перевод 3: Авторский (одноголосный) Михалёв
»Перевод 4: Авторский (одноголосный) Махонько
»Перевод 5: Оригинал
»Субтитры: Русские
»Описание: Он — лучший в своем деле, единственный и неповторимый! Он — Эйс Вентура, детектив по розыску домашних любимцев. Когда таинственные злоумышленники похищают дельфина по кличке «Снежинка», талисман местной футбольной команды «Дельфины», Эйс тут же приступает к работе, проявляя чудеса изобретательности.
История принимает странный оборот, когда похищают еще и ведущего игрока «Дельфинов». Теперь Эйсу приходится разыскивать сразу двух млекопитающих. Он сталкивается «нос к носу» с акулой-людоедом, спасает любимую команду и очаровывает женщин. Находится ли он «под прикрытием», под огнем или под водой, он обязательно найдет то, что ищет!

»Качество: HDTVRip 1080i
»Продолжительность: 01:27:23
»Формат: MKV
»Видео кодек: V_MPEG4
»Аудио кодек: AC3
»Видео: 1920x1080 (16:9), 23,976 [email protected] ~ 10,9 Mbit/sec avg, 0.218 bit/pixel
Аудио 1: 48 kHz, AC3, ~ 192 kbps avg - дубляж
Аудио 2: 48 kHz, AC3, ~ 192 kbps avg - многоголосый закадровый
Аудио 3: 48 kHz, AC3, ~ 192 kbps avg - одноголосный Михалёв
Аудио 4: 48 kHz, AC3, ~ 192 kbps avg - одноголосный Махонько
Аудио 5: 48 kHz, AC3, ~ 192 kbps avg - Оригинал

MEDIAINFO

General
Unique ID : 192979154958178797716432056592382982182 (0x912E6EEDE7CFFC5495E7EBFB65AA7826)
Complete name : D:\Фильмы\Ace Ventura Pet Detective HDTVRip 1080p.mkv
Format : Matroska
Format version : Version 2
File size : 7.09 GiB
Duration : 1h 25mn
Overall bit rate : 11.8 Mbps
Encoded date : UTC 2009-10-08 11:50:49
Writing application : mkvmerge v2.9.8 ('C'est le bon') built on Aug 13 2009 12:49:06
Writing library : libebml v0.7.7 + libmatroska v0.8.1
TITLE : Ace Ventura: Pet Detective (1994) Rip from DIMAPIKS - Release for torrents.ru
DIRECTOR : DIMAPIKS
Video #1
ID : 1
Format : AVC
Format/Info : Advanced Video Codec
Format profile : [email protected]
Format settings, CABAC : Yes
Format settings, ReFrames : 4 frames
Codec ID : V_MPEG4/ISO/AVC
Duration : 1h 25mn
Bit rate : 10.9 Mbps
Width : 1 920 pixels
Height : 1 080 pixels
Display aspect ratio : 16:9
Frame rate : 23.976 fps
Color space : YUV
Chroma subsampling : 4:2:0
Bit depth : 8 bits
Scan type : Progressive
Bits/(Pixel*Frame) : 0.218
Stream size : 6.38 GiB (90%)
Title : MPEG4 Video (H264) 1920x1080, 16/9, 23.976 fps ~ 10,9 Mbit/sec
Writing library : x264 core 68 r1183M f21daff
Encoding settings : cabac=1 / ref=4 / deblock=1:-1:-1 / analyse=0x3:0x113 / me=umh / subme=8 / psy_rd=1.0:0.0 / mixed_ref=1 / me_range=16 / chroma_me=1 / trellis=2 / 8x8dct=1 / cqm=0 / deadzone=21,11 / chroma_qp_offset=-2 / threads=3 / nr=0 / decimate=1 / mbaff=0 / bframes=3 / b_pyramid=0 / b_adapt=2 / b_bias=0 / direct=3 / wpredb=1 / keyint=250 / keyint_min=25 / scenecut=40 / rc=2pass / bitrate=10863 / ratetol=1.0 / qcomp=0.60 / qpmin=10 / qpmax=51 / qpstep=4 / cplxblur=20.0 / qblur=0.5 / vbv_maxrate=50000 / vbv_bufsize=50000 / ip_ratio=1.40 / pb_ratio=1.30 / aq=1:1.00
Language : English
Default : No
Forced : No
Audio #2
ID : 2
Format : AC-3
Format/Info : Audio Coding 3
Mode extension : CM (complete main)
Codec ID : A_AC3
Duration : 1h 25mn
Bit rate mode : Constant
Bit rate : 192 Kbps
Channel(s) : 2 channels
Channel positions : Front: L R
Sampling rate : 48.0 KHz
Bit depth : 16 bits
Compression mode : Lossy
Delay relative to video : 24ms
Stream size : 118 MiB (2%)
Title : АС3 48000Hz 2ch 192Kbps, Профессиональный (полное дублирование)
Language : Russian
Default : No
Forced : No
Audio #3
ID : 3
Format : AC-3
Format/Info : Audio Coding 3
Mode extension : CM (complete main)
Codec ID : A_AC3
Duration : 1h 25mn
Bit rate mode : Constant
Bit rate : 192 Kbps
Channel(s) : 2 channels
Channel positions : Front: L R
Sampling rate : 48.0 KHz
Bit depth : 16 bits
Compression mode : Lossy
Stream size : 118 MiB (2%)
Title : АС3 48000Hz 2ch 192Kbps, Профессиональный (многоголосный, закадровый)
Language : Russian
Default : No
Forced : No
Audio #4
ID : 4
Format : AC-3
Format/Info : Audio Coding 3
Mode extension : CM (complete main)
Codec ID : A_AC3
Duration : 1h 25mn
Bit rate mode : Constant
Bit rate : 192 Kbps
Channel(s) : 2 channels
Channel positions : Front: L R
Sampling rate : 48.0 KHz
Bit depth : 16 bits
Compression mode : Lossy
Stream size : 118 MiB (2%)
Title : АС3 48000Hz 2ch 192Kbps, Авторский (одноголосный) Михалёв
Language : Russian
Default : No
Forced : No
Audio #5
ID : 5
Format : AC-3
Format/Info : Audio Coding 3
Mode extension : CM (complete main)
Codec ID : A_AC3
Duration : 1h 25mn
Bit rate mode : Constant
Bit rate : 192 Kbps
Channel(s) : 2 channels
Channel positions : Front: L R
Sampling rate : 48.0 KHz
Bit depth : 16 bits
Compression mode : Lossy
Stream size : 118 MiB (2%)
Title : АС3 48000Hz 2ch 192Kbps, Авторский (одноголосный) Махонько
Language : Russian
Default : No
Forced : No
Audio #6
ID : 6
Format : AC-3
Format/Info : Audio Coding 3
Mode extension : CM (complete main)
Codec ID : A_AC3
Duration : 1h 25mn
Bit rate mode : Constant
Bit rate : 192 Kbps
Channel(s) : 2 channels
Channel positions : Front: L R
Sampling rate : 48.0 KHz
Bit depth : 16 bits
Compression mode : Lossy
Stream size : 118 MiB (2%)
Title : АС3 48000Hz 2ch 192Kbps, Английский (оригинал)
Language : English
Default : No
Forced : No
Text #7
ID : 7
Format : UTF-8
Codec ID : S_TEXT/UTF8
Codec ID/Info : UTF-8 Plain Text
Title : Русские(SRT)
Language : Russian
Default : No
Forced : No
Text #8
ID : 8
Format : VobSub
Muxing mode : zlib
Codec ID : S_VOBSUB
Codec ID/Info : The same subtitle format used on DVDs
Title : Русские(VobSub)
Language : Russian
Default : No
Forced : No
[th]http://torrentsclub.org/pictures/a358cbafafda558a61...d9a8996.png[/th]
[th]http://torrentsclub.org/pictures/728f1b108bccc5094a...2181f7e.png[/th]
[th]http://torrentsclub.org/pictures/bbbb5028527077cb8d...2394707.png[/th]

[Цитировать]



Показать сообщения:    

Текущее время: 06-Дек 08:52

Часовой пояс: UTC + 3


Вы не можете начинать темы
Вы не можете отвечать на сообщения
Вы не можете редактировать свои сообщения
Вы не можете удалять свои сообщения
Вы не можете голосовать в опросах
Вы не можете прикреплять файлы к сообщениям
Вы не можете скачивать файлы

!ВНИМАНИЕ!
Сайт не предоставляет электронные версии произведений, а занимается лишь коллекционированием и каталогизацией ссылок, присылаемых и публикуемых на форуме нашими читателями. Если вы являетесь правообладателем какого-либо представленного материала и не желаете, чтобы ссылка на него находилась в нашем каталоге, свяжитесь с нами, и мы незамедлительно удалим ее. Файлы для обмена на трекере предоставлены пользователями сайта, и администрация не несет ответственности за их содержание. Просьба не заливать файлы, защищенные авторскими правами, а также файлы нелегального содержания!