[ Сегодня идет свободное скачивание без начисления Download ]


Статистика раздачи
Нет
 
   
 
Top  
 
 
Каникулы на ранчо / Horse Sense (1999) TVRip-AVC Информация о фильме
Название: Каникулы на ранчо
Оригинальное название: Horse Sense
Год выхода: 1999
Жанр: драма, семейный
Режиссер: Грег Биман
В ролях: Джозеф Лоуренс, Эндрю Лоуренс, Сьюзэн Уолтерс, М. К. Гейни, Лиэнн Ханли, Робин Томас, Джоли Дженкинс, Стив Ривис, Фреда Фо Шен, Иан Огилви
О фильме:
Майкл отвратительно вел себя со своим кузеном Томом, пока тот гостил у его родителей в Лос-Анджелесе. Настало время ответного визита и родители Майкла отправили своего избалованного сынка на летние каникулы в Монтану, на ферму.
Майкл вынужден терпеть издевательства Тома, который отчаянно мстит своему отвратительному братцу. Майклу не терпится вернуться домой, но совершенно случайно он узнает, что Томи и его мама могут лишиться своей фермы.
Они слишком горды, чтобы принять его финансовую помощь. Майклу придется принять весьма непростое решение…

Производство: США / Hal Roach Studios Inc.
Продолжительность: 01:28:32
Перевод: профессиональный (многоголосый закадровый) [Селена Интернешнл]
Файл
Качество: TVRip-AVC
Формат: MKV
Видео: MPEG-4 AVC, 720x576 (5:4), 25.000 fps, 2000 kbps, 0.193 bit/pixel
Аудио: русский, AC3 2.0, 48 kHz, 192 kbps

MediaInfo

Формат : Matroska
Версия формата : Version 4 / Version 2
Размер файла : 1,36 Гбайт
Продолжительность : 1 ч. 28 м.
Общий поток : 2205 Кбит/сек
Дата кодирования : UTC 2016-07-29 19:19:52
Программа кодирования : mkvmerge v8.7.0 ('All of the above') 64bit
Библиотека кодирования : Lavf54.6.101
DURATION : 01:28:32.832000000
NUMBER_OF_FRAMES : 166026
NUMBER_OF_BYTES : 127507968
_STATISTICS_WRITING_APP : mkvmerge v8.7.0 ('All of the above') 64bit
_STATISTICS_WRITING_DATE_UTC : 2016-07-29 19:19:52
_STATISTICS_TAGS : BPS DURATION NUMBER_OF_FRAMES NUMBER_OF_BYTES
Видео
Идентификатор : 1
Формат : AVC
Формат/Информация : Advanced Video Codec
Профиль формата : [email protected]
Параметр CABAC формата : Нет
Параметр ReFrames формата : 1 кадр
Идентификатор кодека : V_MPEG4/ISO/AVC
Продолжительность : 1 ч. 28 м.
Битрейт : 2000 Кбит/сек
Ширина : 720 пикселей
Высота : 576 пикселей
Соотношение сторон : 5:4
Режим частоты кадров : Постоянный
Частота кадров : 25,000 кадров/сек
Стандарт вещания : PAL
Цветовое пространство : YUV
Субдискретизация насыщенности : 4:2:0
Битовая глубина : 8 бит
Тип развёртки : Прогрессивная
Бит/(Пиксели*Кадры) : 0.193
Размер потока : 1,22 Гбайт (89%)
Библиотека кодирования : x264 core 120
Настройки программы : cabac=0 / ref=1 / deblock=1:0:0 / analyse=0x1:0x111 / me=hex / subme=2 / psy=1 / psy_rd=1.00:0.00 / mixed_ref=0 / me_range=16 / chroma_me=1 / trellis=0 / 8x8dct=0 / cqm=0 / deadzone=21,11 / fast_pskip=1 / chroma_qp_offset=0 / threads=3 / sliced_threads=0 / nr=0 / decimate=1 / interlaced=0 / bluray_compat=0 / constrained_intra=0 / bframes=0 / weightp=0 / keyint=250 / keyint_min=25 / scenecut=40 / intra_refresh=0 / rc_lookahead=10 / rc=abr / mbtree=1 / bitrate=2000 / ratetol=1.0 / qcomp=0.60 / qpmin=0 / qpmax=69 / qpstep=4 / ip_ratio=1.40 / aq=1:1.00
Default : Нет
Forced : Нет
DURATION : 01:28:32.840000000
NUMBER_OF_FRAMES : 132797
NUMBER_OF_BYTES : 1335506678
_STATISTICS_WRITING_APP : mkvmerge v8.7.0 ('All of the above') 64bit
_STATISTICS_WRITING_DATE_UTC : 2016-07-29 19:19:52
_STATISTICS_TAGS : BPS DURATION NUMBER_OF_FRAMES NUMBER_OF_BYTES
Аудио
Идентификатор : 2
Формат : AC-3
Формат/Информация : Audio Coding 3
Расширение режима : CM (complete main)
Параметр Endianness формата : Big
Идентификатор кодека : A_AC3
Продолжительность : 1 ч. 28 м.
Вид битрейта : Постоянный
Битрейт : 192 Кбит/сек
Каналы : 2 канала
Расположение каналов : Front: L R
Частота : 48,0 КГц
Метод сжатия : С потерями
Размер потока : 122 Мбайт (9%)
Язык : Russian
Default : Да
Forced : Нет

[Цитировать]



Показать сообщения:    

Текущее время: 06-Дек 11:18

Часовой пояс: UTC + 3


Вы не можете начинать темы
Вы не можете отвечать на сообщения
Вы не можете редактировать свои сообщения
Вы не можете удалять свои сообщения
Вы не можете голосовать в опросах
Вы не можете прикреплять файлы к сообщениям
Вы не можете скачивать файлы

!ВНИМАНИЕ!
Сайт не предоставляет электронные версии произведений, а занимается лишь коллекционированием и каталогизацией ссылок, присылаемых и публикуемых на форуме нашими читателями. Если вы являетесь правообладателем какого-либо представленного материала и не желаете, чтобы ссылка на него находилась в нашем каталоге, свяжитесь с нами, и мы незамедлительно удалим ее. Файлы для обмена на трекере предоставлены пользователями сайта, и администрация не несет ответственности за их содержание. Просьба не заливать файлы, защищенные авторскими правами, а также файлы нелегального содержания!