[ Сегодня идет свободное скачивание без начисления Download ]


Статистика раздачи
Нет
 
   
 
Top  
 
 
Вторая жизнь Уве / En man som heter Ove (2015) HDRip-AVC Информация о фильме
Название: Вторая жизнь Уве
Оригинальное название: En man som heter Ove
Год выхода: 2015
Жанр: драма, комедия
Режиссер: Ханнес Холм
В ролях: Рольф Лассгорд, Бахар Парс, Зозан Акгюн, Тобиас Альмборг, Виктор Боуе, Филип Берг, Анна-Лена Бергелин, Лассе Карлссон
О фильме: Кто же он такой, этот самый Уве..? Пожилой въедливый ворчун, достающий соседей вечными придирками. Он впадает в ярость при виде брошенного не туда мусора или неправильно припаркованной машины. И кроет на чем свет стоит легкомысленную семейку новоселов, в которой папаша и гвоздя вбить не способен. Зато Уве умеет все: виртуозно втиснуть свой «сааб» между крыльцом и почтовым ящиком, починить батарею, выколотить скидку у самого прижимистого торговца. В доме и в гараже у него всегда идеальный порядок. Как и в мыслях. Вот только зачем ему пистолет или крюк в потолке, или пригоршня снотворных? Возможно, ответ знает приблудный котище. Его не склонный к сантиментам Уве гнал-гнал, да так и не прогнал…

Страна: Швеция / Nordisk Film, Nordsvensk Filmunderhallning, Sveriges Television (SVT)
Продолжительность: 01:55:51
Перевод: Дубляж Line
Файл
Качество: HDRip-AVC
Формат: MKV
Видео: AVC, 2500 Kbps, 1024x440
Звук: Русский: AC3, 192 Kbps (2 ch), Английский: AC3, 448 Kbps (6 ch)
Субтитры: нет
Дополнительно: Сохранены оригинальные главы (чаптеры)

MediaInfo:

Format : Matroska
Format version : Version 4 / Version 2
File size : 2.54 GiB
Duration : 1h 55mn
Overall bit rate : 3 145 Kbps
Movie name : Rip by basma4i
Writing application : XviD4PSP 7.0.280 DAILY
Writing library : Lavf57.25.100
ENCODING_INFO : MATROSKA,WEBM > MKV / H264 > X264 VBR-2P 2500kbps Произвольный / AC3 > AC3 CBR 192kbps / DTS > AC3 CBR 448kbps
MIMETYPE : image/jpeg
FILENAME : cover.jpg
DURATION : 00:00:00.000000000
Attachements : cover.jpg
Video
ID : 1
Format : AVC
Format/Info : Advanced Video Codec
Format profile : Main@L4.1
Format settings, CABAC : Yes
Format settings, ReFrames : 14 frames
Codec ID : V_MPEG4/ISO/AVC
Bit rate : 2 500 Kbps
Width : 1 024 pixels
Height : 440 pixels
Display aspect ratio : 2.40:1
Original display aspect ratio : 2.40:1
Frame rate mode : Variable
Original frame rate : 24.000 fps
Color space : YUV
Chroma subsampling : 4:2:0
Bit depth : 8 bits
Scan type : Progressive
Bits/(Pixel*Frame) : 0.231
Writing library : x264 core 148 r2705M 3f5ed56
Encoding settings : cabac=1 / ref=14 / deblock=1:-3:-3 / analyse=0x1:0x131 / me=umh / subme=11 / psy=1 / psy_rd=1.00:0.20 / mixed_ref=1 / me_range=32 / chroma_me=1 / trellis=2 / 8x8dct=0 / cqm=0 / deadzone=21,11 / fast_pskip=1 / chroma_qp_offset=-4 / threads=12 / lookahead_threads=3 / sliced_threads=0 / nr=0 / decimate=1 / interlaced=0 / bluray_compat=0 / constrained_intra=0 / bframes=11 / b_pyramid=2 / b_adapt=2 / b_bias=8 / direct=3 / weightb=1 / open_gop=0 / weightp=2 / keyint=240 / keyint_min=24 / scenecut=40 / intra_refresh=0 / rc_lookahead=40 / rc=2pass / mbtree=1 / bitrate=2500 / ratetol=1.0 / qcomp=0.60 / qpmin=0 / qpmax=69 / qpstep=10 / cplxblur=20.0 / qblur=0.5 / ip_ratio=1.40 / aq=1:1.00
Language : Swedish
Default : Yes
Forced : No
ENCODING_INFO : x264 - core 142 r2431+42 c69a006 tMod [8-bit@all X86_64] - H.264/MPEG-4 AVC codec - Copyleft 2003-2014 - http://www.videolan.org/x264.html - options: cabac=1 ref=12 deblock=1:-3:-3 analyse=0x3:0x133 me=umh subme=11 psy=1 fade_compensate=0.00 psy_rd=1.05:1.00 mixed_ref=1 me_range=32 chroma_me=1 trellis=2 8x8dct=1 cqm=0 deadzone=21,11 fast_pskip=0 chroma_qp_offset=-4 threads=12 lookahead_threads=2 sliced_threads=0 nr=0 decimate=0 interlaced=0 bluray_compat=0 constrained_intra=0 fgo=0 bframes=8 b_pyramid=2 b_adapt=2 b_bias=0 direct=3 weightb=1 open_gop=0 weightp=2 keyint=240 keyint_min=24 scenecut=40 intra_refresh=0 rc_lookahead=60 rc=crf mbtree=0 crf=17.9000 qcomp=0.60 qpmin=0:0:0 qpmax=69:69:69 qpstep=4 vbv_maxrate=40000 vbv_bufsize=30000 crf_max=0.0 nal_hrd=none filler=0 ip_ratio=1.40 pb_ratio=1.30 aq=1:1.00 aq-sensitivity=10.00 aq-factor=1.00:1.00:1.00 aq2=0 aq3=0
DURATION : 01:55:51.797000000
Audio #1
ID : 2
Format : AC-3
Format/Info : Audio Coding 3
Mode extension : CM (complete main)
Format settings, Endianness : Big
Codec ID : A_AC3
Duration : 1h 55mn
Bit rate mode : Constant
Bit rate : 192 Kbps
Channel(s) : 2 channels
Channel positions : Front: L R
Sampling rate : 48.0 KHz
Bit depth : 32 bits
Compression mode : Lossy
Stream size : 159 MiB (6%)
Language : Russian
Default : Yes
Forced : No
DURATION : 01:55:51.808000000
Audio #2
ID : 3
Format : AC-3
Format/Info : Audio Coding 3
Mode extension : CM (complete main)
Format settings, Endianness : Big
Codec ID : A_AC3
Duration : 1h 55mn
Bit rate mode : Constant
Bit rate : 448 Kbps
Channel(s) : 6 channels
Channel positions : Front: L C R, Side: L R, LFE
Sampling rate : 48.0 KHz
Bit depth : 32 bits
Compression mode : Lossy
Stream size : 371 MiB (14%)
Language : English
Default : No
Forced : No
DURATION : 01:55:51.808000000
Menu
00:00:00.000 : :Chapter 01
00:09:59.875 : :Chapter 02
00:19:59.708 : :Chapter 03
00:29:59.791 : :Chapter 04
00:39:59.916 : :Chapter 05
00:50:00.000 : :Chapter 06
00:59:59.625 : :Chapter 07
01:09:59.750 : :Chapter 08
01:19:59.541 : :Chapter 09
01:29:59.708 : :Chapter 10
01:39:59.750 : :Chapter 11
01:49:59.625 : :Chapter 12
01:55:51.791 : :Chapter 13

Скриншоты

[Цитировать]



Показать сообщения:    

Текущее время: 07-Дек 19:28

Часовой пояс: UTC + 3


Вы не можете начинать темы
Вы не можете отвечать на сообщения
Вы не можете редактировать свои сообщения
Вы не можете удалять свои сообщения
Вы не можете голосовать в опросах
Вы не можете прикреплять файлы к сообщениям
Вы не можете скачивать файлы

!ВНИМАНИЕ!
Сайт не предоставляет электронные версии произведений, а занимается лишь коллекционированием и каталогизацией ссылок, присылаемых и публикуемых на форуме нашими читателями. Если вы являетесь правообладателем какого-либо представленного материала и не желаете, чтобы ссылка на него находилась в нашем каталоге, свяжитесь с нами, и мы незамедлительно удалим ее. Файлы для обмена на трекере предоставлены пользователями сайта, и администрация не несет ответственности за их содержание. Просьба не заливать файлы, защищенные авторскими правами, а также файлы нелегального содержания!