[ Сегодня идет свободное скачивание без начисления Download ]


Статистика раздачи
Нет
 
   
 
Top  
 
 
До самого конца / All the Way (2016) HDTV 1080i Информация о фильме
Название: До самого конца
Оригинальное название: All the Way
Год выхода: 2016
Жанр: Драма, биография, исторический
Режиссер: Джей Роуч
В ролях: Энтони Маки, Брайан Крэнстон, Джо Мортон, Брэдли Уитфорд, Фрэнк Ланджелла, Стивен Рут, Мелисса Лео, Итэн Филлипс, Тоби Хасс, Аиша Хайндс, Спенсер Гаррет, Мо, Дон Норвуд, Саманта Богач, Рэнди Оглсби, Хэл Лэндон мл., Тодд Викс, Джо О’Коннор, Марке Ричардсон II, Стефен Стэнтон, Джефф Дусетте, Шоун Эшли, Талия Томс, Эмбер Таунсенд, Бо Фоксворф, Брюс Нозик, Эрик Памфри
О фильме:
Линдон Джонсон становится президентом США на волне всеобщего хаоса, вызванного внезапным убийством Джона Кеннеди. В первый же год на посту главы государства Линдон Джонсон способствует принятию Акта о гражданских правах, который положит конец расовой сегрегации на юге страны — по крайней мере на бумаге.

Страна: США
Студия: Amblin Entertainment, HBO Films, Moon Shot Entertainment, Tale Told Productions
Продолжительность: 02:06:35
Перевод: Профессиональный многоголосый
Файл
Кодек: h.264
Качество: HDTV 1080i
Видео: MPEG-4 AVC, ~ 6353 Кбит/с, 1920x1080, 25.000 кадр/с
Звук:
Русский (AC3, 6 ch, 384 Кбит/с) / Профессиональный многоголосый (Amedia)
Английский (MP2, 2 ch, 192 Кбит/с)
Семпл

О релизе

Автор релиза - Silverok, первоисточник - Amedia Premium HD

MI

Общее
Идентификатор : 1 (0x1)
Полное имя : D:uTorrentDo.samogo.konca.2016.HDTV.1080i.MediaClub.ts
Формат : MPEG-TS
Размер файла : 6,45 Гбайт
Продолжительность : 2 ч. 6 м.
Режим общего битрейта : Переменный
Общий поток : 7295 Кбит/сек
Видео
Идентификатор : 303 (0x12F)
Идентификатор меню : 26003 (0x6593)
Формат : AVC
Формат/Информация : Advanced Video Codec
Профиль формата : High@L4
Параметр CABAC формата : Да
Параметр ReFrames формата : 4 кадра
Параметр GOP формата : M=4, N=28
Идентификатор кодека : 27
Продолжительность : 2 ч. 6 м.
Битрейт : 6353 Кбит/сек
Ширина : 1920 пикселей
Высота : 1080 пикселей
Соотношение сторон : 16:9
Частота кадров : 25,000 кадров/сек
Стандарт вещания : Component
Цветовое пространство : YUV
Субдискретизация насыщенности : 4:2:0
Битовая глубина : 8 бит
Тип развёртки : Чересстрочная
Метод сохранения типа развёртки : Раздельные поля
Порядок развёртки : Верхнее поле первое
Бит/(Пиксели*Кадры) : 0.123
Размер потока : 5,62 Гбайт (87%)
Цветовой диапазон : Limited
Основные цвета : BT.709
Характеристики трансфера : BT.709
Коэффициенты матрицы : BT.709
Аудио #1
Идентификатор : 403 (0x193)
Идентификатор меню : 26003 (0x6593)
Формат : AC-3
Формат/Информация : Audio Coding 3
Расширение режима : CM (complete main)
Параметр Endianness формата : Big
Идентификатор кодека : 6
Продолжительность : 2 ч. 6 м.
Вид битрейта : Постоянный
Битрейт : 384 Кбит/сек
Каналы : 6 каналов
Расположение каналов : Front: L C R, Side: L R, LFE
Частота : 48,0 КГц
Частота кадров : 31,250 кадров/сек (1536 spf)
Метод сжатия : С потерями
Задержка видео : -80 мс.
Размер потока : 348 Мбайт (5%)
Язык : Russian
Аудио #2
Идентификатор : 404 (0x194)
Идентификатор меню : 26003 (0x6593)
Формат : MPEG Audio
Версия формата : Version 1
Профиль формата : Layer 2
Идентификатор кодека : 3
Продолжительность : 2 ч. 6 м.
Вид битрейта : Постоянный
Битрейт : 192 Кбит/сек
Каналы : 2 канала
Частота : 48,0 КГц
Метод сжатия : С потерями
Задержка видео : -80 мс.
Размер потока : 174 Мбайт (3%)
Язык : English

Скриншоты

[Цитировать]



Показать сообщения:    

Текущее время: 08-Дек 09:02

Часовой пояс: UTC + 3


Вы не можете начинать темы
Вы не можете отвечать на сообщения
Вы не можете редактировать свои сообщения
Вы не можете удалять свои сообщения
Вы не можете голосовать в опросах
Вы не можете прикреплять файлы к сообщениям
Вы не можете скачивать файлы

!ВНИМАНИЕ!
Сайт не предоставляет электронные версии произведений, а занимается лишь коллекционированием и каталогизацией ссылок, присылаемых и публикуемых на форуме нашими читателями. Если вы являетесь правообладателем какого-либо представленного материала и не желаете, чтобы ссылка на него находилась в нашем каталоге, свяжитесь с нами, и мы незамедлительно удалим ее. Файлы для обмена на трекере предоставлены пользователями сайта, и администрация не несет ответственности за их содержание. Просьба не заливать файлы, защищенные авторскими правами, а также файлы нелегального содержания!