[ Сегодня идет свободное скачивание без начисления Download ]


Статистика раздачи
Нет
 
   
 
Top  
 
 
Кинг Конг: Остров черепа / Kong: Skull Island (2017) WEBRip - Производство: США / Legendary Pictures, Warner Bros.
Жанр: Фэнтези, Боевик, Приключения
Режиссер: Джордан Вот-Робертс
Актеры: Том Хиддлстон, Бри Ларсон, Сэмюэл Л. Джексон, Кори Хоукинс, Тоби Кеббелл, Ши Уигхэм, Джейсон Митчелл, Джон Гудман, Джон Си Райли, Томас Манн
Описание:
Действие фильма переносит зрителя в 70-е года прошлого века. Главный герой организует экспедицию к Острову Черепа, вечно покрытого туманом, на котором когда-то был пойман Кинг-Конг, чтобы найти пропавшего брата и некую таинственную субстанцию. Во время нелегких поисков путешественникам предстоит столкнуться с кошмарным миром монстров жуткого острова.

Дата мировой премьеры: 9 марта 2017
Дата российской премьеры: 9 марта 2017, «Каро-Премьер» 3D
Продолжительность: 00:02:26
Качество видео: WEBRip
Перевод: Дублированный
Видео: AVC, 1920x1080 (16:9), 25.000 fps, 18.0 Mbps (0.327 bit/pixel)
Аудио: AC-3, 44.1 KHz, 6 ch, 448 Kbps, CBR

Mediainfo:

General
Unique ID                   : 198556950611010561071191664954329207937 (0x9560AD7CC034FA83A6011EBA7A0B1481)
Complete name               : E:\TRL\Kong.Skull.Island.2017.WEBRip.1O8Op.TRL_RUS.mkv
Format                      : Matroska
Format version              : Version 4 / Version 2
File size                   : 310 MiB
Duration                    : 2mn 26s
Overall bit rate            : 17.8 Mbps
Movie name                  : В-А специально для NNM
Encoded date                : UTC 2016-07-30 15:30:10
Writing application         : mkvmerge v8.9.0 ('Father Daughter') 64bit
Writing library             : libebml v1.3.3 + libmatroska v1.4.4
Cover                       : Yes
Attachments                 : cover.jpg
Video
ID                          : 1
Format                      : AVC
Format/Info                 : Advanced Video Codec
Format profile              : [url=mailto:[email protected]][email protected][/url]
Format settings, CABAC      : No
Format settings, ReFrames   : 1 frame
Codec ID                    : V_MPEG4/ISO/AVC
Duration                    : 2mn 26s
Bit rate                    : 18.0 Mbps
Width                       : 1 920 pixels
Height                      : 1 080 pixels
Display aspect ratio        : 16:9
Frame rate mode             : Constant
Frame rate                  : 25.000 fps
Color space                 : YUV
Chroma subsampling          : 4:2:0
Bit depth                   : 8 bits
Scan type                   : Progressive
Bits/(Pixel*Frame)          : 0.347
Stream size                 : 303 MiB (98%)
Writing library             : x264 core 119
Encoding settings           : cabac=0 / ref=1 / deblock=0:0:0 / analyse=0:0 / me=dia / subme=0 / psy=1 / psy_rd=1.00:0.00 / mixed_ref=0 / me_range=16 / chroma_me=1 / trellis=0 / 8x8dct=0 / cqm=0 / deadzone=21,11 / fast_pskip=1 / chroma_qp_offset=0 / threads=4 / sliced_threads=0 / nr=0 / decimate=1 / interlaced=0 / bluray_compat=0 / constrained_intra=0 / bframes=0 / weightp=0 / keyint=250 / keyint_min=25 / scenecut=0 / intra_refresh=0 / rc=abr / mbtree=0 / bitrate=18000 / ratetol=1.0 / qcomp=0.60 / qpmin=0 / qpmax=69 / qpstep=4 / ip_ratio=1.40 / aq=0
Default                     : Yes
Forced                      : No
Audio
ID                          : 2
Format                      : AC-3
Format/Info                 : Audio Coding 3
Mode extension              : CM (complete main)
Format settings, Endianness : Big
Codec ID                    : A_AC3
Duration                    : 2mn 11s
Bit rate mode               : Constant
Bit rate                    : 448 Kbps
Channel(s)                  : 6 channels
Channel positions           : Front: L C R, Side: L R, LFE
Sampling rate               : 44.1 KHz
Frame rate                  : 28.711 fps (1536 spf)
Compression mode            : Lossy
Delay relative to video     : -5ms
Stream size                 : 7.00 MiB (2%)
Title                       : Дубляж
Language                    : Russian
Default                     : Yes
Forced                      : Yes
Скриншоты:

[Цитировать]



Показать сообщения:    

Текущее время: 05-Дек 23:43

Часовой пояс: UTC + 3


Вы не можете начинать темы
Вы не можете отвечать на сообщения
Вы не можете редактировать свои сообщения
Вы не можете удалять свои сообщения
Вы не можете голосовать в опросах
Вы не можете прикреплять файлы к сообщениям
Вы не можете скачивать файлы

!ВНИМАНИЕ!
Сайт не предоставляет электронные версии произведений, а занимается лишь коллекционированием и каталогизацией ссылок, присылаемых и публикуемых на форуме нашими читателями. Если вы являетесь правообладателем какого-либо представленного материала и не желаете, чтобы ссылка на него находилась в нашем каталоге, свяжитесь с нами, и мы незамедлительно удалим ее. Файлы для обмена на трекере предоставлены пользователями сайта, и администрация не несет ответственности за их содержание. Просьба не заливать файлы, защищенные авторскими правами, а также файлы нелегального содержания!