[ Сегодня идет свободное скачивание без начисления Download ]


Статистика раздачи
Нет
 
   
 
Top  
 
 
Смертельная гонка 3: Ад / Death Race: Inferno Год выпуска: 2013
Страна: США
Производство: Moonlighting Films South Africa
Жанр: боевик, триллер, криминал
Режиссер: Роэль Рейн
В ролях: Дэнни Трехо, Винг Реймз, Дюгрэй Скотт, Люк Госс, Танит Феникс , Робин Шоу, Фредерик Колер, Таня ван Граан, Лэнгли Кирквуд, Шон Майкл
Перевод: Профессиональный (полное дублирование)
Субтитры: Отсутствуют
Описание: Карл Лукас по прозвищу Франкенштейн — раскаявшийся преступник, легендарный участник жестокого и кровавого тюремного соревнования под названием Смертельная гонка. Чтобы обрести долгожданную свободу, ему осталось одержать лишь одну победу, но эта гонка опасна как никогда, ведь на этот раз она проходит в пустыне!
Чтобы доказать свое превосходство, Лукасу предстоит справиться не только с безжалостными соперниками-гонщиками, но и с таинственными влиятельными врагами в смертоносной южно-африканской пустыне.

[kp]597026[/kp] [imdb]tt1988591[/imdb]
Качество: HDRip
Продолжительность: 01:45:12
Формат: AVI
Видео кодек: XviD
Аудио кодек: AC3
Видео: 720x400 (1.80:1), 23.976 fps, XviD MPEG-4, 1527 kbps avg, 0.22 bit/pixel
Аудио: 48 kHz, AC3 Dolby Digital, 3/2 (L,C,R,l,r) + LFE ch, 448 kbps

Media Info

Видео
Идентификатор                    : 0
Формат                           : MPEG-4 Visual
Профиль формата                  : Advanced Simple@L5
Параметр BVOP формата            : 2
Параметр QPel формата            : Нет
Параметр GMC формата             : Без точки перехода
Параметр матрицы формата         : Выборочная
Идентификатор кодека             : XVID
Идентификатор кодека/Подсказка   : XviD
Продолжительность                : 1 ч. 45 м.
Битрейт                          : 1528 Кбит/сек
Ширина                           : 720 пикс.
Высота                           : 400 пикс.
Соотношение сторон               : 16:9
Частота кадров                   : 23,976 кадр/сек
Цветовое пространство            : YUV
Подвыборка цветности             : 4:2:0
Битовая глубина                  : 8 бит
Тип развёртки                    : Прогрессивная
Метод сжатия                     : С потерями
Бит/(Пиксели*Кадры)              : 0.221
Размер потока                    : 1,12 Гбайт (77%)
Библиотека кодирования           : XviD 64
Аудио
Идентификатор                    : 1
Формат                           : AC-3
Формат/Информация                : Audio Coding 3
Расширение режима                : CM (complete main)
Идентификатор кодека             : 2000
Продолжительность                : 1 ч. 45 м.
Вид битрейта                     : Постоянный
Битрейт                          : 448 Кбит/сек
Каналы                           : 6 каналов
Расположение каналов             : Front: L C R, Side: L R, LFE
Частота                          : 48,0 КГц
Битовая глубина                  : 16 бит
Метод сжатия                     : С потерями
Размер потока                    : 337 Мбайт (23%)
Выравнивание                     : Разделение по промежуткам
Продолжительность промежутка     : 42  мс. (1,00 видеокадр)
Время предзагрузки промежутка    : 500 ms
[th]http://torrentsclub.org/pictures/89bdcae23e6895c5bd...a6a735e.jpg[/th]
[th]http://torrentsclub.org/pictures/3ea8f3260c7ce98ea0...0ef85ec.jpg[/th]
[th]http://torrentsclub.org/pictures/df81d45b0ba0e38efe...7c99d74.jpg[/th]
[th]http://torrentsclub.org/pictures/ba33a6b00cddfbd096...a30dc56.jpg[/th]
[th]http://torrentsclub.org/pictures/262d095848fcb81de7...5f3370f.jpg[/th]

[Цитировать]



Показать сообщения:    

Текущее время: 10-Дек 00:20

Часовой пояс: UTC + 3


Вы не можете начинать темы
Вы не можете отвечать на сообщения
Вы не можете редактировать свои сообщения
Вы не можете удалять свои сообщения
Вы не можете голосовать в опросах
Вы не можете прикреплять файлы к сообщениям
Вы не можете скачивать файлы

!ВНИМАНИЕ!
Сайт не предоставляет электронные версии произведений, а занимается лишь коллекционированием и каталогизацией ссылок, присылаемых и публикуемых на форуме нашими читателями. Если вы являетесь правообладателем какого-либо представленного материала и не желаете, чтобы ссылка на него находилась в нашем каталоге, свяжитесь с нами, и мы незамедлительно удалим ее. Файлы для обмена на трекере предоставлены пользователями сайта, и администрация не несет ответственности за их содержание. Просьба не заливать файлы, защищенные авторскими правами, а также файлы нелегального содержания!