[ Сегодня идет свободное скачивание без начисления Download ]


Статистика раздачи
Нет
 
   
 
Top  
 
 
Большой толстый лгун / Big Fat Liar (2002) Информация о фильме
Название: Большой толстый лгун
Оригинальное название: Big Fat Liar
Год выхода: 2002
Жанр: комедия, приключения, семейный
Режиссер: Шон Леви
В ролях: Фрэнки Муниз, Пол Джаматти, Аманда Байнс, Аманда Детмер, Дональд Фэйсон, Сандра О, Расселл Хорнсби, Майкл Брайан Френч, Кристин Туччи, Ли Мэйджорс
О фильме:
14-летний Джейсон Шеферд узнает, что его школьная работа-сценарий под названием «Неисправимый врун» была украдена голливудским продюсером и превратилась с его помощью в настоящий блокбастер.
Отправившись в Лос-Анджелес со своей подружкой Кейли, парень пытается вернуть себе свои права. И с помощью разных уловок ставит на колени известного продюсера!

Страна: США, Германия
Студия: Mediastream Zweite Film GmbH & Co. Productions KG, Paramount Pictures, Tollin/Robbins Productions, Universal Pictures
Продолжительность: 01:27:47
Перевод: Профессиональный (двухголосый, закадровый) П.Гланц и И.Королёва + Профессиональный (двухголосый, закадровый) Премьер Видео Фильм + Профессиональный (многоголосый, закадровый) R5 + Профессиональный (многоголосый, закадровый) СТС + Профессиональный (двухголосый, закадровый)
Файл
Формат: Matroska
Видео: 1280x694 at 23.976 fps, [email protected], ~7500 kbps avg
Аудио#1: Russian: 48 kHz, AC3 Dolby Digital, 3/2 (L,C,R,l,r) + LFE ch, ~640 kbps avg |Двухголосый закадровый, П.Гланц и И.Королёва|
Аудио#2: Russian: 48 kHz, AC3 Dolby Digital, 2/0 (L,R) ch, ~192 kbps avg |Двухголосый закадровый, Премьер Видео Фильм|
Аудио#3: Russian: 48 kHz, AC3 Dolby Digital, 3/2 (L,C,R,l,r) + LFE ch, ~384 kbps avg |Многоголосый закадровый, R5|
Аудио#4: Russian: 48 kHz, AC3 Dolby Digital, 2/0 (L,R) ch, ~192 kbps avg |Многоголосый закадровый, СТС|
Аудио#5: Ukrainian: 48 kHz, AC3 Dolby Digital, 2/0 (L,R) ch, ~192 kbps avg |Двухголосый закадровый|
Аудио#6: English: 48 kHz, AC3 Dolby Digital, 3/2 (L,C,R,l,r) + LFE ch, ~640 kbps avg
Аудио#7: English: 48 kHz, AAC, 2/0 (L,R) ch, ~72 kbps avg |Commentary by Shawn Levy|
Аудио#8: English: 48 kHz, AAC, 2/0 (L,R) ch, ~77 kbps avg |Commentary by Frankie Muniz|
Субтитры: Russian, Ukrainian (x4), English
***Сохранены оригинальные главы как на Blu-ray.
***Видеоряд - SbR.

MI

Общее
Уникальный идентификатор : 183855381213591808629189246480558321836 (0x8A514227433549F9A00F5A57C95FF0AC)
Полное имя : Big.Fat.Liar.2002.720p.BluRay.4xRus.Ukr.Eng.HDCLUB-SbR.mkv
Формат : Matroska
Версия формата : Version 4 / Version 2
Размер файла : 6,07 Гбайт
Продолжительность : 1 ч. 27 м.
Общий поток : 9892 Кбит/сек
Дата кодирования : UTC 2016-07-31 05:00:51
Программа кодирования : mkvmerge v9.3.1 ('Mask Machine') 32bit
Библиотека кодирования : libebml v1.3.4 + libmatroska v1.4.5
Attachements : cover.jpg
Видео
Идентификатор : 1
Формат : AVC
Формат/Информация : Advanced Video Codec
Профиль формата : [email protected]
Параметр CABAC формата : Да
Параметр ReFrames формата : 9 кадров
Идентификатор кодека : V_MPEG4/ISO/AVC
Продолжительность : 1 ч. 27 м.
Номинальный битрейт : 7500 Кбит/сек
Ширина : 1280 пикселей
Высота : 694 пикселя
Соотношение сторон : 1,85:1
Режим частоты кадров : Постоянный
Частота кадров : 23,976 кадра/сек
Цветовое пространство : YUV
Субдискретизация насыщенности : 4:2:0
Битовая глубина : 8 бит
Тип развёртки : Прогрессивная
Бит/(Пиксели*Кадры) : 0.352
Библиотека кодирования : x264 core 148 r2705+54 9f484c1 t_mod_Custom [[email protected] X86_64]
Настройки программы : cabac=1 / ref=9 / deblock=1:-3:-3 / analyse=0x3:0x133 / me=umh / subme=10 / psy=1 / fade_compensate=0.00 / psy_rd=1.10:0.05 / mixed_ref=1 / me_range=32 / chroma_me=1 / trellis=2 / 8x8dct=1 / cqm=0 / deadzone=21,11 / fast_pskip=0 / chroma_qp_offset=-3 / threads=6 / lookahead_threads=1 / sliced_threads=0 / nr=0 / decimate=1 / interlaced=0 / bluray_compat=0 / constrained_intra=0 / fgo=0 / bframes=8 / b_pyramid=2 / b_adapt=2 / b_bias=0 / direct=3 / weightb=1 / open_gop=0 / weightp=2 / keyint=250 / keyint_min=23 / scenecut=40 / intra_refresh=0 / rc=2pass / mbtree=0 / bitrate=7500 / ratetol=1.0 / qcomp=0.60 / qpmin=0:0:0 / qpmax=69:69:69 / qpstep=4 / cplxblur=20.0 / qblur=0.5 / ip_ratio=1.30 / pb_ratio=1.20 / aq=1:0.80 / aq-sensitivity=10.00 / aq-factor=1.00:1.00:1.00 / aq2=1:0.70 / aq2-sensitivity=15.00 / aq2-factor=1.00:1.00:1.00 / aq3=1:[0.60:0.60]:[0.60:0.60]:[0.60:0.60]:[0.60:0.60] / aq3-sensitivity=10.00 / aq3-factor=[1.00:1.00]:[1.00:1.00]:[1.00:1.00] / aq3-boundary=192:64:24
Язык : English
Default : Да
Forced : Нет
Цветовой диапазон : Limited
Коэффициенты матрицы : BT.709
Аудио #1
Идентификатор : 2
Формат : AC-3
Формат/Информация : Audio Coding 3
Расширение режима : CM (complete main)
Параметр Endianness формата : Big
Идентификатор кодека : A_AC3
Продолжительность : 1 ч. 27 м.
Вид битрейта : Постоянный
Битрейт : 640 Кбит/сек
Каналы : 6 каналов
Расположение каналов : Front: L C R, Side: L R, LFE
Частота : 48,0 КГц
Метод сжатия : С потерями
Размер потока : 402 Мбайт (6%)
Заголовок : Двухголосый закадровый, П. Гланц и И. Королёва
Язык : Russian
Default : Да
Forced : Нет
Аудио #2
Идентификатор : 3
Формат : AC-3
Формат/Информация : Audio Coding 3
Расширение режима : CM (complete main)
Параметр Endianness формата : Big
Идентификатор кодека : A_AC3
Продолжительность : 1 ч. 27 м.
Вид битрейта : Постоянный
Битрейт : 192 Кбит/сек
Каналы : 2 канала
Расположение каналов : Front: L R
Частота : 48,0 КГц
Метод сжатия : С потерями
Размер потока : 121 Мбайт (2%)
Заголовок : Двухголосый закадровый
Язык : Russian
Default : Нет
Forced : Нет
Аудио #3
Идентификатор : 4
Формат : AC-3
Формат/Информация : Audio Coding 3
Расширение режима : CM (complete main)
Параметр Endianness формата : Big
Идентификатор кодека : A_AC3
Продолжительность : 1 ч. 27 м.
Вид битрейта : Постоянный
Битрейт : 384 Кбит/сек
Каналы : 6 каналов
Расположение каналов : Front: L C R, Side: L R, LFE
Частота : 48,0 КГц
Метод сжатия : С потерями
Размер потока : 241 Мбайт (4%)
Заголовок : Многоголосый закадровый, лицензия
Язык : Russian
Default : Нет
Forced : Нет
Аудио #4
Идентификатор : 5
Формат : AC-3
Формат/Информация : Audio Coding 3
Расширение режима : CM (complete main)
Параметр Endianness формата : Big
Идентификатор кодека : A_AC3
Продолжительность : 1 ч. 27 м.
Вид битрейта : Постоянный
Битрейт : 192 Кбит/сек
Каналы : 2 канала
Расположение каналов : Front: L R
Частота : 48,0 КГц
Метод сжатия : С потерями
Размер потока : 121 Мбайт (2%)
Заголовок : Многоголосый закадровый, СТС
Язык : Russian
Default : Нет
Forced : Нет
Аудио #5
Идентификатор : 6
Формат : AC-3
Формат/Информация : Audio Coding 3
Расширение режима : CM (complete main)
Параметр Endianness формата : Big
Идентификатор кодека : A_AC3
Продолжительность : 1 ч. 27 м.
Вид битрейта : Постоянный
Битрейт : 192 Кбит/сек
Каналы : 2 канала
Расположение каналов : Front: L R
Частота : 48,0 КГц
Метод сжатия : С потерями
Размер потока : 121 Мбайт (2%)
Заголовок : Двухголосый закадровый
Язык : Ukrainian
Default : Нет
Forced : Нет
Аудио #6
Идентификатор : 7
Формат : AC-3
Формат/Информация : Audio Coding 3
Расширение режима : CM (complete main)
Параметр Endianness формата : Big
Идентификатор кодека : A_AC3
Продолжительность : 1 ч. 27 м.
Вид битрейта : Постоянный
Битрейт : 640 Кбит/сек
Каналы : 6 каналов
Расположение каналов : Front: L C R, Side: L R, LFE
Частота : 48,0 КГц
Метод сжатия : С потерями
Размер потока : 402 Мбайт (6%)
Язык : English
Default : Нет
Forced : Нет
Аудио #7
Идентификатор : 8
Формат : AAC
Формат/Информация : Advanced Audio Codec
Профиль формата : LC
Идентификатор кодека : A_AAC
Продолжительность : 1 ч. 27 м.
Каналы : 2 канала
Расположение каналов : Front: L R
Частота : 48,0 КГц
Метод сжатия : С потерями
Задержка видео : 9 мс.
Заголовок : Commentary by Shawn Levy
Язык : English
Default : Нет
Forced : Нет
Аудио #8
Идентификатор : 9
Формат : AAC
Формат/Информация : Advanced Audio Codec
Профиль формата : LC
Идентификатор кодека : A_AAC
Продолжительность : 1 ч. 27 м.
Каналы : 2 канала
Расположение каналов : Front: L R
Частота : 48,0 КГц
Метод сжатия : С потерями
Задержка видео : 9 мс.
Заголовок : Commentary by Frankie Muniz
Язык : English
Default : Нет
Forced : Нет
Текст #1
Идентификатор : 10
Формат : UTF-8
Идентификатор кодека : S_TEXT/UTF8
Идентификатор кодека/Информация : UTF-8 Plain Text
Язык : Russian
Default : Нет
Forced : Нет
Текст #2
Идентификатор : 11
Формат : UTF-8
Идентификатор кодека : S_TEXT/UTF8
Идентификатор кодека/Информация : UTF-8 Plain Text
Заголовок : forced
Язык : Ukrainian
Default : Нет
Forced : Нет
Текст #3
Идентификатор : 12
Формат : UTF-8
Идентификатор кодека : S_TEXT/UTF8
Идентификатор кодека/Информация : UTF-8 Plain Text
Язык : Ukrainian
Default : Нет
Forced : Нет
Текст #4
Идентификатор : 13
Формат : UTF-8
Идентификатор кодека : S_TEXT/UTF8
Идентификатор кодека/Информация : UTF-8 Plain Text
Заголовок : Commentary by Shawn Levy
Язык : Ukrainian
Default : Нет
Forced : Нет
Текст #5
Идентификатор : 14
Формат : UTF-8
Идентификатор кодека : S_TEXT/UTF8
Идентификатор кодека/Информация : UTF-8 Plain Text
Заголовок : Commentary by Frankie Muniz
Язык : Ukrainian
Default : Нет
Forced : Нет
Текст #6
Идентификатор : 15
Формат : UTF-8
Идентификатор кодека : S_TEXT/UTF8
Идентификатор кодека/Информация : UTF-8 Plain Text
Язык : English
Default : Нет
Forced : Нет
Меню
00:00:00.000 : en:00:00:00.000
00:05:10.143 : en:00:05:10.143
00:07:01.170 : en:00:07:01.170
00:12:32.793 : en:00:12:32.793
00:15:39.730 : en:00:15:39.730
00:21:27.953 : en:00:21:27.953
00:33:34.804 : en:00:33:34.804
00:39:29.617 : en:00:39:29.617
00:44:46.809 : en:00:44:46.809
00:47:26.093 : en:00:47:26.093
00:52:52.502 : en:00:52:52.502
00:58:16.367 : en:00:58:16.367
01:03:34.393 : en:01:03:34.393
01:12:25.716 : en:01:12:25.716
01:16:23.245 : en:01:16:23.245
01:18:57.941 : en:01:18:57.941
01:20:46.550 : en:01:20:46.550
01:22:55.053 : en:01:22:55.053

Скриншоты

[Цитировать]



Показать сообщения:    

Текущее время: 06-Дек 20:53

Часовой пояс: UTC + 3


Вы не можете начинать темы
Вы не можете отвечать на сообщения
Вы не можете редактировать свои сообщения
Вы не можете удалять свои сообщения
Вы не можете голосовать в опросах
Вы не можете прикреплять файлы к сообщениям
Вы не можете скачивать файлы

!ВНИМАНИЕ!
Сайт не предоставляет электронные версии произведений, а занимается лишь коллекционированием и каталогизацией ссылок, присылаемых и публикуемых на форуме нашими читателями. Если вы являетесь правообладателем какого-либо представленного материала и не желаете, чтобы ссылка на него находилась в нашем каталоге, свяжитесь с нами, и мы незамедлительно удалим ее. Файлы для обмена на трекере предоставлены пользователями сайта, и администрация не несет ответственности за их содержание. Просьба не заливать файлы, защищенные авторскими правами, а также файлы нелегального содержания!