[ Сегодня идет свободное скачивание без начисления Download ]


Статистика раздачи
Нет
 
   
 
Top  
 
 
--Заточенные кепки / Острые козырьки / Peaky Blinders-- Год выпуска: 2016
Страна: Великобритания
Жанр: драма, криминал
Продолжительность: ~ 00:55:00-Перевод:
Профессиональный (многоголосый закадровый) AlexFilm
Профессиональный (многоголосый закадровый) LostFiilm
Профессиональный (двухголосый закадровый) Kybik v Kube
Профессиональный (многоголосый закадровый) Jaskier-Режиссёр: Тим Милантс / Tim Mielants-В ролях: Киллиан Мерфи, Том Харди, Пол Андерсон, Иддо Голдберг, Хелен МакКрори, Сэм Нилл, Аннабелль Уоллис, Джо Коул, Элфи Эванс-Мис, Джек Хартли, Кевин Меткалф-Описание: Британский сериал о криминальном мире Бирмингема 20-х годов прошлого века, в котором многолюдная семья Шелби стала одной из самых жестоких и влиятельных гангстерских банд послевоенного времени. Фирменным знаком группировки, промышлявшей грабежами и азартными играми, стали зашитые в козырьки лезвия.- -Ссылка на предыдущие и альтернативные раздачи-Качество: BDRip 1080p
Контейнер: MKV
Видео: H.264, 1920x1040 (1.85:1), 25.000 fps, ~8 700 kbps, 0.174 bit/pixel
Аудио # 1: AC-3, 48 KHz, 6 ch, 640 kbps | AlexFilm
Аудио # 2: AC-3, 48 KHz, 6 ch, 640 kbps | LostFilm
Аудио # 3: AC-3, 48 KHz, 6 ch, 640 kbps | Kybik v Kube (1-2 серии)
Аудио # 4: AC-3, 48 KHz, 2 ch, 192 kbps | Jaskier
Аудио # 5: AC-3, 48 KHz, 6 ch, 640 kbps | Original
Субтитры: русские (N-Team), английские

Релиз

Релиз: Grandfather61
особая благодарность Михаилу Шорыгину (AlexFilm) за предоставленные голоса
Дорожка 1 получена наложением чистых голосов от «AlexFilm» на центр оригинального AC3.
Дорожка 2 получена наложением выделенных голосов от «LostFilm» на центр оригинального AC3.
Дорожка 3 получена наложением чистых голосов от «Kybik v Kube» на центр оригинального AC3 - Messafan (CasStudio)
Монтаж, работа со звуком, с субтитрами: Grandfather61

MediaInfo

General
Unique ID : 175435948510906606157739835460125833587 (0x83FBBC1268F1265C95FF02B6021DB973)
Complete name : G:\Films\Peaky.Blinders.S03.1080p.BluRay\Peaky.Blinders.S03E01.1080p.BluRay.4xRus.Eng.Subs.mkv
Format : Matroska
Format version : Version 4 / Version 2
File size : 4.45 GiB
Duration : 55mn 42s
Overall bit rate : 11.4 Mbps
Encoded date : UTC 2016-07-13 07:10:40
Writing application : mkvmerge v9.1.0 ('Little Earthquakes') 64bit
Writing library : libebml v1.3.3 + libmatroska v1.4.4
Video
ID : 1
Format : AVC
Format/Info : Advanced Video Codec
Format profile : [email protected]
Format settings, CABAC : Yes
Format settings, ReFrames : 4 frames
Codec ID : V_MPEG4/ISO/AVC
Duration : 55mn 42s
Bit rate : 8 694 Kbps
Width : 1 920 pixels
Height : 1 040 pixels
Display aspect ratio : 1.85:1
Frame rate mode : Constant
Frame rate : 25.000 fps
Color space : YUV
Chroma subsampling : 4:2:0
Bit depth : 8 bits
Scan type : Progressive
Bits/(Pixel*Frame) : 0.174
Stream size : 3.38 GiB (76%)
Writing library : x264 core 148 r2692 64f4e24
Encoding settings : cabac=1 / ref=4 / deblock=1:-3:-3 / analyse=0x3:0x113 / me=umh / subme=8 / psy=1 / psy_rd=1.00:0.00 / mixed_ref=1 / me_range=16 / chroma_me=1 / trellis=1 / 8x8dct=1 / cqm=0 / deadzone=21,11 / fast_pskip=1 / chroma_qp_offset=-2 / threads=24 / lookahead_threads=4 / sliced_threads=0 / nr=0 / decimate=1 / interlaced=0 / bluray_compat=0 / constrained_intra=0 / bframes=3 / b_pyramid=2 / b_adapt=2 / b_bias=0 / direct=3 / weightb=1 / open_gop=0 / weightp=2 / keyint=250 / keyint_min=25 / scenecut=40 / intra_refresh=0 / rc_lookahead=50 / rc=2pass / mbtree=1 / bitrate=8694 / ratetol=1.0 / qcomp=0.60 / qpmin=0 / qpmax=69 / qpstep=4 / cplxblur=20.0 / qblur=0.5 / ip_ratio=1.40 / aq=3:0.80
Language : English
Default : Yes
Forced : No
Audio #1
ID : 2
Format : AC-3
Format/Info : Audio Coding 3
Mode extension : CM (complete main)
Format settings, Endianness : Big
Codec ID : A_AC3
Duration : 55mn 42s
Bit rate mode : Constant
Bit rate : 640 Kbps
Channel(s) : 6 channels
Channel positions : Front: L C R, Side: L R, LFE
Sampling rate : 48.0 KHz
Frame rate : 31.250 fps (1536 spf)
Compression mode : Lossy
Stream size : 255 MiB (6%)
Title : AlexFilm 5.1
Language : Russian
Default : Yes
Forced : No
Audio #2
ID : 3
Format : AC-3
Format/Info : Audio Coding 3
Mode extension : CM (complete main)
Format settings, Endianness : Big
Codec ID : A_AC3
Duration : 55mn 42s
Bit rate mode : Constant
Bit rate : 640 Kbps
Channel(s) : 6 channels
Channel positions : Front: L C R, Side: L R, LFE
Sampling rate : 48.0 KHz
Frame rate : 31.250 fps (1536 spf)
Compression mode : Lossy
Stream size : 255 MiB (6%)
Title : LostFilm 5.1
Language : Russian
Default : No
Forced : No
Audio #3
ID : 4
Format : AC-3
Format/Info : Audio Coding 3
Mode extension : CM (complete main)
Format settings, Endianness : Big
Codec ID : A_AC3
Duration : 55mn 42s
Bit rate mode : Constant
Bit rate : 640 Kbps
Channel(s) : 6 channels
Channel positions : Front: L C R, Side: L R, LFE
Sampling rate : 48.0 KHz
Frame rate : 31.250 fps (1536 spf)
Compression mode : Lossy
Stream size : 255 MiB (6%)
Title : Kybik v Kube
Language : Russian
Default : No
Forced : No
Audio #4
ID : 5
Format : AC-3
Format/Info : Audio Coding 3
Mode extension : CM (complete main)
Format settings, Endianness : Big
Codec ID : A_AC3
Duration : 55mn 36s
Bit rate mode : Constant
Bit rate : 192 Kbps
Channel(s) : 2 channels
Channel positions : Front: L R
Sampling rate : 48.0 KHz
Frame rate : 31.250 fps (1536 spf)
Compression mode : Lossy
Stream size : 76.4 MiB (2%)
Title : Jaskier 2.1
Language : Russian
Default : No
Forced : No
Audio #5
ID : 6
Format : AC-3
Format/Info : Audio Coding 3
Mode extension : CM (complete main)
Format settings, Endianness : Big
Codec ID : A_AC3
Duration : 55mn 42s
Bit rate mode : Constant
Bit rate : 640 Kbps
Channel(s) : 6 channels
Channel positions : Front: L C R, Side: L R, LFE
Sampling rate : 48.0 KHz
Frame rate : 31.250 fps (1536 spf)
Compression mode : Lossy
Stream size : 255 MiB (6%)
Title : original 5.1
Language : English
Default : No
Forced : No
Text #1
ID : 7
Format : UTF-8
Codec ID : S_TEXT/UTF8
Codec ID/Info : UTF-8 Plain Text
Duration : 54mn 55s
Bit rate : 80 bps
Count of elements : 594
Stream size : 32.2 KiB (0%)
Title : rus (N-Team)
Language : Russian
Default : No
Forced : No
Text #2
ID : 8
Format : UTF-8
Codec ID : S_TEXT/UTF8
Codec ID/Info : UTF-8 Plain Text
Duration : 55mn 7s
Bit rate : 53 bps
Count of elements : 697
Stream size : 21.6 KiB (0%)
Title : CC
Language : English
Default : No
Forced : No
Menu
00:00:00.000 : en:00:00:00.000
00:08:23.400 : en:00:08:23.400
00:19:11.120 : en:00:19:11.120
00:29:14.400 : en:00:29:14.400
00:40:48.640 : en:00:40:48.640
00:49:48.360 : en:00:49:48.360

Скриншоты

Раздача обновлена. Добавлены с 3-й по 6-ю серии ( без дорожки Кубик в Кубе, она будет добавляться по мере выхода). Приятного просмотра

[Цитировать]



Показать сообщения:    

Текущее время: 05-Дек 23:41

Часовой пояс: UTC + 3


Вы не можете начинать темы
Вы не можете отвечать на сообщения
Вы не можете редактировать свои сообщения
Вы не можете удалять свои сообщения
Вы не можете голосовать в опросах
Вы не можете прикреплять файлы к сообщениям
Вы не можете скачивать файлы

!ВНИМАНИЕ!
Сайт не предоставляет электронные версии произведений, а занимается лишь коллекционированием и каталогизацией ссылок, присылаемых и публикуемых на форуме нашими читателями. Если вы являетесь правообладателем какого-либо представленного материала и не желаете, чтобы ссылка на него находилась в нашем каталоге, свяжитесь с нами, и мы незамедлительно удалим ее. Файлы для обмена на трекере предоставлены пользователями сайта, и администрация не несет ответственности за их содержание. Просьба не заливать файлы, защищенные авторскими правами, а также файлы нелегального содержания!