[ Сегодня идет свободное скачивание без начисления Download ]


Статистика раздачи
Нет
 
   
 
Top  
 
 
Шик! / Chic! (2015) Информация о фильме
Название: Шик!
Оригинальное название: Chic!
Год выхода: 2015
Жанр: Комедия
Режиссер: Жером Корнюо
В ролях: Фанни Ардан, Марина Хэндс, Эрик Элмоснино, Лоран Стокер, Катрин Осмален, Филипп Дюкен, Индия Хэйр, Клеменс Бретеше, Дебора Гралл
О фильме:
У Алисии, дизайнера известного дома высокой моды, из-за развода иссяк источник вдохновения. Как назло, показ новой коллекции уже не за горами…
Страна: Франция
Студия: Alter Films, Canal+ [fr], Ciné, France 2 Cinéma, France Télévisions, Studio Canal
Продолжительность: 01:37:11
Перевод: Профессиональный многоголосый
Файл
Кодек: h.264
Качество: HDTV 1080i
Видео: MPEG-4 AVC, ~ 4833 Кбит/с, 1920x1080, 25.000 кадр/с
Звук:
Русский (AC3, 6 ch, 384 Кбит/с) / Профессиональный многоголосый
Русский (MP2, 2 ch, 192 Кбит/с) / Профессиональный многоголосый
Семпл

О релизе

Автор релиза - Silverok, первоисточник - Первый канал HD

MI

General
ID : 1 (0x1)
Complete name : C:uTorrentShik.2015.HDTV.1080i.MediaClub.ts
Format : MPEG-TS
File size : 3.87 GiB
Duration : 1 h 37 min
Overall bit rate mode : Variable
Overall bit rate : 5 696 kb/s
Video
ID : 1904 (0x770)
Menu ID : 904 (0x388)
Format : AVC
Format/Info : Advanced Video Codec
Format profile : High@L4
Format settings, CABAC : Yes
Format settings, ReFrames : 3 frames
Codec ID : 27
Duration : 1 h 37 min
Bit rate : 4 833 kb/s
Width : 1 920 pixels
Height : 1 080 pixels
Display aspect ratio : 16:9
Frame rate : 25.000 FPS
Standard : Component
Color space : YUV
Chroma subsampling : 4:2:0
Bit depth : 8 bits
Scan type : Interlaced
Scan type, store method : Separated fields
Scan order : Top Field First
Bits/(Pixel*Frame) : 0.093
Stream size : 3.28 GiB (85%)
Color range : Limited
Color primaries : BT.709
Transfer characteristics : BT.709
Matrix coefficients : BT.709
Audio #1
ID : 2904 (0xB58)
Menu ID : 904 (0x388)
Format : AC-3
Format/Info : Audio Coding 3
Mode extension : CM (complete main)
Format settings, Endianness : Big
Codec ID : 6
Duration : 1 h 37 min
Bit rate mode : Constant
Bit rate : 384 kb/s
Channel(s) : 6 channels
Channel positions : Front: L C R, Side: L R, LFE
Sampling rate : 48.0 kHz
Frame rate : 31.250 FPS (1536 spf)
Compression mode : Lossy
Delay relative to video : -80 ms
Stream size : 267 MiB (7%)
Language : Russian
Audio #2
ID : 2905 (0xB59)
Menu ID : 904 (0x388)
Format : MPEG Audio
Format version : Version 1
Format profile : Layer 2
Codec ID : 3
Duration : 1 h 37 min
Bit rate mode : Constant
Bit rate : 192 kb/s
Channel(s) : 2 channels
Sampling rate : 48.0 kHz
Compression mode : Lossy
Delay relative to video : -80 ms
Stream size : 133 MiB (3%)
Language : Russian

Скриншоты

[Цитировать]



Показать сообщения:    

Текущее время: 08-Дек 23:11

Часовой пояс: UTC + 3


Вы не можете начинать темы
Вы не можете отвечать на сообщения
Вы не можете редактировать свои сообщения
Вы не можете удалять свои сообщения
Вы не можете голосовать в опросах
Вы не можете прикреплять файлы к сообщениям
Вы не можете скачивать файлы

!ВНИМАНИЕ!
Сайт не предоставляет электронные версии произведений, а занимается лишь коллекционированием и каталогизацией ссылок, присылаемых и публикуемых на форуме нашими читателями. Если вы являетесь правообладателем какого-либо представленного материала и не желаете, чтобы ссылка на него находилась в нашем каталоге, свяжитесь с нами, и мы незамедлительно удалим ее. Файлы для обмена на трекере предоставлены пользователями сайта, и администрация не несет ответственности за их содержание. Просьба не заливать файлы, защищенные авторскими правами, а также файлы нелегального содержания!