[ Сегодня идет свободное скачивание без начисления Download ]


Статистика раздачи
Нет
 
   
 
 
 
Формула 1. Гран-При Германии. 1, 2, 3 практики. Квалификация. Гонка (2016) HDTV [H.264/1080i]- Телекомпания: Матч Арена HD

Жанр: Спорт, авто
Язык комментариев: Русский (Владимир Башмаков, Алексей Попов)
Описание:
29-30 июля 2016 года.
Этап 12. Гран-при Германии
Арена: Автодром Хоккенхаймринг (Хоккенхайм, Германия)
Релиз от: steep2013
Продолжительность: 05:42:48
Качество видео: HDTV
Видео: AVC/H.264, 1920x1080, ~8800 Kbps
Аудио: MP2, 2 ch, 192 Kbps, CBR

Заезды

(29.07.2016) - 1-я свободная практика - [01:38:33]
(29.07.2016) - 2-я свободная практика - [01:41:02]
(30.07.2016) - 3-я свободная практика - [01:08:54]
(30.07.2016) - Квалификация - [01:14:19]
(31.07.2016) - Гонка - [02:11:08]

Результаты

1-я свободная практика

2-я свободная практика

3-я свободная практика

Квалификация

Гонка

Mediainfo

Общее
Идентификатор : 1 (0x1)
Полное имя : F:\ТВ\Формула 1\Гран-при Германии.1080i\1-я свободная практика_1080i_steep.ts
Формат : MPEG-TS
Размер файла : 6,52 Гбайт
Продолжительность : 1 ч. 38 м.
Режим общего битрейта : Переменный
Общий поток : 9475 Кбит/сек
Видео
Идентификатор : 324 (0x144)
Идентификатор меню : 12104 (0x2F48)
Формат : AVC
Формат/Информация : Advanced Video Codec
Профиль формата : High@L4
Параметр CABAC формата : Да
Параметр ReFrames формата : 4 кадра
Идентификатор кодека : 27
Продолжительность : 1 ч. 38 м.
Битрейт : 8813 Кбит/сек
Ширина : 1920 пикселей
Высота : 1080 пикселей
Соотношение сторон : 16:9
Частота кадров : 25,000 кадров/сек
Стандарт вещания : Component
Цветовое пространство : YUV
Субдискретизация насыщенности : 4:2:0
Битовая глубина : 8 бит
Тип развёртки : Чересстрочная
Метод сохранения типа развёртки : Раздельные поля
Порядок развёртки : Верхнее поле первое
Бит/(Пиксели*Кадры) : 0.170
Размер потока : 6,07 Гбайт (93%)
Цветовой диапазон : Limited
Основные цвета : BT.709
Характеристики трансфера : BT.709
Коэффициенты матрицы : BT.709
Аудио
Идентификатор : 404 (0x194)
Идентификатор меню : 12104 (0x2F48)
Формат : MPEG Audio
Версия формата : Version 1
Профиль формата : Layer 2
Идентификатор кодека : 3
Продолжительность : 1 ч. 38 м.
Вид битрейта : Постоянный
Битрейт : 192 Кбит/сек
Каналы : 2 канала
Частота : 48,0 КГц
Метод сжатия : С потерями
Размер потока : 135 Мбайт (2%)
Язык : Russian
Скриншоты:

[Цитировать]



Показать сообщения:    

Текущее время: 09-Дек 12:36

Часовой пояс: UTC + 3


Вы не можете начинать темы
Вы не можете отвечать на сообщения
Вы не можете редактировать свои сообщения
Вы не можете удалять свои сообщения
Вы не можете голосовать в опросах
Вы не можете прикреплять файлы к сообщениям
Вы не можете скачивать файлы

!ВНИМАНИЕ!
Сайт не предоставляет электронные версии произведений, а занимается лишь коллекционированием и каталогизацией ссылок, присылаемых и публикуемых на форуме нашими читателями. Если вы являетесь правообладателем какого-либо представленного материала и не желаете, чтобы ссылка на него находилась в нашем каталоге, свяжитесь с нами, и мы незамедлительно удалим ее. Файлы для обмена на трекере предоставлены пользователями сайта, и администрация не несет ответственности за их содержание. Просьба не заливать файлы, защищенные авторскими правами, а также файлы нелегального содержания!