[ Сегодня идет свободное скачивание без начисления Download ]


Статистика раздачи
Нет
 
   
 
Top  
 
 
Водитель / The Driver
«He'll get you away faster than anyone else on wheels.»
?Год выпуска: 1978
?Страна: США, Великобритания
?Производство: 20th Century Fox Film Corporation
?Жанр: Боевик, триллер, драма, криминал
?Режиссёр: Уолтер Хилл
?В ролях: Райан О’Нил, Брюс Дерн, Изабель Аджани, Рони Блейкли, Мэтт Кларк, Феличе Орланди, Джозеф Уолш, Руди Рамос, Денни Мако, Фрэнк Бруно
?Перевод: Профессиональный (многоголосый, закадровый) + 2 x Авторский (одноголосый) + Оригинал (Английский)
?Озвучка: А.Михалев, Г.Либергал
?Субтитры: Английские (UTF-8)
?Описание: Неприятности аса - водителя и угонщика автомобилей начинаются в тот момент, когда он становится соучастником ограбления банка. Водитель в бегах ведет настоящую дуэль с беспощадным полицейским, расставляющим ловушки на пути беглеца.
Знакомство с прекрасной, но непредсказуемой в поступках женщиной - азартным игроком, которую во всей этой истории привлекает не результат, а участие, усложняет жизнь водителя.

?Качество: HDTVRip 720p
?Продолжительность: 01:29:23 час.
?Формат: MKV
?Главы: Есть
?Видео кодек: AVC
?Аудио кодек: AC3
?Видео: 1280x720р (16:9), 23.976 fps, AVC MPEG4(x264), High@L4.1 ~7464 kbps avg, 0.338 bit/pixel
?Аудио №1: Русский: 48 kHz, Dolby AC3, 2 ch, ~192 kbps avg [Профессиональный (многоголосый, закадровый)]
?Аудио №2: Русский: 48 kHz, Dolby AC3, 2 ch, ~192 kbps avg [Авторский (одноголосый) (А.Михалев)]
?Аудио №3: Русский: 48 kHz, Dolby AC3, 2 ch, ~192 kbps avg [Авторский (одноголосый) (Г.Либергал)]
?Аудио №4: Английский: 48 kHz, Dolby AC3, 2 ch, ~384 kbps avg [Оригинал]

MediaInfo

General
Unique ID : 245186798273721587700630280969286028359 (0xB875427A26B4A6C183C527244A4B8C47)
Complete name : D:\фильмы\Voditelj.1978.HDTVRip.720p.mkv
Format : Matroska
Format version : Version 2
File size : 5.26 GiB
Duration : 1h 29mn
Overall bit rate : 8 421 Kbps
Movie name : The_Driver_1978
Encoded date : UTC 2010-03-26 19:55:30
Writing application : mkvmerge v3.2.0 ('Beginnings') built on Feb 12 2010 16:46:17
Writing library : libebml v0.7.9 + libmatroska v0.8.1
Video
ID : 1
Format : AVC
Format/Info : Advanced Video Codec
Format profile : High@L4.1
Format settings, CABAC : Yes
Format settings, ReFrames : 5 frames
Codec ID : V_MPEG4/ISO/AVC
Duration : 1h 29mn
Bit rate : 7 464 Kbps
Width : 1 280 pixels
Height : 720 pixels
Display aspect ratio : 16:9
Frame rate : 23.976 fps
Color space : YUV
Chroma subsampling : 4:2:0
Bit depth : 8 bits
Scan type : Progressive
Bits/(Pixel*Frame) : 0.338
Stream size : 4.55 GiB (87%)
Writing library : x264 core 84 r1400M 20fa784
Encoding settings : cabac=1 / ref=5 / deblock=1:-3:-3 / analyse=0x3:0x133 / me=umh / subme=9 / psy=1 / psy_rd=1.0:0.0 / mixed_ref=1 / me_range=32 / chroma_me=1 / trellis=2 / 8x8dct=1 / cqm=0 / deadzone=21,11 / fast_pskip=0 / chroma_qp_offset=-2 / threads=6 / sliced_threads=0 / nr=0 / decimate=0 / mbaff=0 / constrained_intra=0 / bframes=3 / b_pyramid=2 / b_adapt=2 / b_bias=0 / direct=3 / wpredb=1 / wpredp=2 / keyint=250 / keyint_min=25 / scenecut=80 / intra_refresh=0 / rc_lookahead=0 / rc=2pass / mbtree=0 / bitrate=7464 / ratetol=1.0 / qcomp=0.60 / qpmin=10 / qpmax=51 / qpstep=4 / cplxblur=20.0 / qblur=0.5 / vbv_maxrate=50000 / vbv_bufsize=62500 / ip_ratio=1.40 / pb_ratio=1.30 / aq=1:0.60 / pulldown=0 / nal_hrd=0
Language : English
Default : No
Forced : No
Audio #1
ID : 2
Format : AC-3
Format/Info : Audio Coding 3
Mode extension : CM (complete main)
Codec ID : A_AC3
Duration : 1h 29mn
Bit rate mode : Constant
Bit rate : 192 Kbps
Channel(s) : 2 channels
Channel positions : Front: L R
Sampling rate : 48.0 KHz
Bit depth : 16 bits
Compression mode : Lossy
Stream size : 123 MiB (2%)
Title : MVO
Language : Russian
Default : Yes
Forced : No
Audio #2
ID : 3
Format : AC-3
Format/Info : Audio Coding 3
Mode extension : CM (complete main)
Codec ID : A_AC3
Duration : 1h 29mn
Bit rate mode : Constant
Bit rate : 192 Kbps
Channel(s) : 2 channels
Channel positions : Front: L R
Sampling rate : 48.0 KHz
Bit depth : 16 bits
Compression mode : Lossy
Stream size : 123 MiB (2%)
Title : Mihalev
Language : Russian
Default : No
Forced : No
Audio #3
ID : 4
Format : AC-3
Format/Info : Audio Coding 3
Mode extension : CM (complete main)
Codec ID : A_AC3
Duration : 1h 29mn
Bit rate mode : Constant
Bit rate : 192 Kbps
Channel(s) : 2 channels
Channel positions : Front: L R
Sampling rate : 48.0 KHz
Bit depth : 16 bits
Compression mode : Lossy
Stream size : 123 MiB (2%)
Title : Libergal
Language : Russian
Default : No
Forced : No
Audio #4
ID : 5
Format : AC-3
Format/Info : Audio Coding 3
Mode extension : CM (complete main)
Codec ID : A_AC3
Duration : 1h 29mn
Bit rate mode : Constant
Bit rate : 384 Kbps
Channel(s) : 2 channels
Channel positions : Front: L R
Sampling rate : 48.0 KHz
Bit depth : 16 bits
Compression mode : Lossy
Delay relative to video : 32ms
Stream size : 246 MiB (5%)
Language : English
Default : No
Forced : No
Text
ID : 6
Format : UTF-8
Codec ID : S_TEXT/UTF8
Codec ID/Info : UTF-8 Plain Text
Language : English
Default : No
Forced : No
Menu
00:01:00.000 : en:Act1
00:05:00.000 : en:Act2
00:10:00.000 : en:Act3
00:15:00.000 : en:Act4
00:20:00.000 : en:Act5
00:25:00.000 : en:Act6
00:30:00.000 : en:Act7
00:35:00.000 : en:Act8
00:40:00.000 : en:Act9
00:45:00.000 : en:Act10
00:50:00.000 : en:Act11
00:55:00.000 : en:Act12
01:00:00.000 : en:Act13
01:05:00.000 : en:Act14
01:10:00.000 : en:Act15
01:15:00.000 : en:Act16
01:20:00.000 : en:Act17
01:25:00.000 : en:Act18
[th]http://torrentsclub.org/pictures/8e82210abe9f4ce0cc...9740449.png[/th] [th]http://torrentsclub.org/pictures/8a1a18c1f7cd5efa3f...68c957e.png[/th] [th]http://torrentsclub.org/pictures/a2ae61b1b835dd9573...5fc0c79.png[/th] [Стол заказов][Прием РГ][О нас "RG Dark Lords]

[Цитировать]



Показать сообщения:    

Текущее время: 29-Апр 07:42

Часовой пояс: UTC + 6


Вы не можете начинать темы
Вы не можете отвечать на сообщения
Вы не можете редактировать свои сообщения
Вы не можете удалять свои сообщения
Вы не можете голосовать в опросах
Вы не можете прикреплять файлы к сообщениям
Вы не можете скачивать файлы

!ВНИМАНИЕ!
Сайт не предоставляет электронные версии произведений, а занимается лишь коллекционированием и каталогизацией ссылок, присылаемых и публикуемых на форуме нашими читателями. Если вы являетесь правообладателем какого-либо представленного материала и не желаете, чтобы ссылка на него находилась в нашем каталоге, свяжитесь с нами, и мы незамедлительно удалим ее. Файлы для обмена на трекере предоставлены пользователями сайта, и администрация не несет ответственности за их содержание. Просьба не заливать файлы, защищенные авторскими правами, а также файлы нелегального содержания!