[ Сегодня идет свободное скачивание без начисления Download ]


Статистика раздачи
Нет
 
   
 
Top  
 
 
99 домов / 99 Homes (2014) Страна: США
Производство: Noruz Productions
Год выпуска: 2014
Жанр: драма
Продолжительность: 01:52:14
Режиссер: Рамин Бахрани
Автор сценария: Рамин Бахрани, Амир Надери, Бахарех Азими
В ролях: Майкл Шеннон, Эндрю Гарфилд, Лора Дерн, Клэнси Браун, Тим Гини, Энн Махони, Хуан Гаспар, Николь Барре, Дж.Д. Эвермор
Описание: Фильм расскажет про человека, теряющего свой дом по закладной. К счастью, ему удается устроиться на работу к риэлтору, забравшему его жильё. Очень скоро он добивается больших успехов на новом поприще и уже сам выселяет несчастных домовладельцев. Однако по мере того, как финансовые проблемы перестают его беспокоить, страдания ему начинает доставлять его совесть...

Перевод: Любительский (одноголосый, закадровый) | VANO
Субтитры: английские-Качество: BDRip 1080p
Формат: МКV
Видео кодек: AVC
Аудио кодек: АС3
Видео: 1920x792 (2.40:1), 23.976 fps, MPEG-4 AVC ~14.0 Мbps avg
Аудио №1: 48.0 kHz, AC3 Dolby Digital, 2/0 (L,R) ch, ~384.00 kbps | RUS
Аудио №2: 48.0 kHz, AC3 Dolby Digital, 3/2 (L,C,R,l,r) + LFE ch, ~640 kbps | ENG
Формат субтитров: PGS
Бюджет: $8 000 000
Дата премьеры (мир): 29 августа 2014-
Призы Венецианского кинофестиваля, 2014 год
» Приз всемирной католической ассоциации по коммуникациям - особое упоминание
» Премия фестиваля Vittorio Veneto - лучший фильм

Media Info

General
Unique ID : 248273795151083583088395442386541620073 (0xBAC7CB2C91923AFA95A188B7B6B22B69)
Complete name : 99.Homes.2014.BDRip.1080p.lexandros.mkv
Format : Matroska
Format version : Version 2
File size : 11.8 GiB
Duration : 1 h 52 min
Overall bit rate : 15.0 Mb/s
Movie name : 99 Homes (2014). BDRip by Lexandros
Encoded date : UTC 2016-08-01 05:48:51
Writing application : mkvmerge v8.5.2 ('Crosses') 32bit
Writing library : libebml v1.3.3 + libmatroska v1.4.4
Video
ID : 1
Format : AVC
Format/Info : Advanced Video Codec
Format profile : [email protected]
Format settings, CABAC : Yes
Format settings, ReFrames : 5 frames
Codec ID : V_MPEG4/ISO/AVC
Duration : 1 h 52 min
Bit rate : 14.0 Mb/s
Width : 1 920 pixels
Height : 792 pixels
Display aspect ratio : 2.40:1
Frame rate mode : Constant
Frame rate : 23.976 (24000/1001) FPS
Color space : YUV
Chroma subsampling : 4:2:0
Bit depth : 8 bits
Scan type : Progressive
Bits/(Pixel*Frame) : 0.384
Stream size : 11.0 GiB (93%)
Writing library : x264 core 148 r2638 7599210
Encoding settings : cabac=1 / ref=5 / deblock=1:-1:-1 / analyse=0x3:0x133 / me=umh / subme=11 / psy=1 / psy_rd=1.05:0.00 / mixed_ref=1 / me_range=32 / chroma_me=1 / trellis=2 / 8x8dct=1 / cqm=0 / deadzone=21,11 / fast_pskip=0 / chroma_qp_offset=-2 / threads=12 / lookahead_threads=2 / sliced_threads=0 / nr=0 / decimate=0 / interlaced=0 / bluray_compat=0 / constrained_intra=0 / bframes=8 / b_pyramid=2 / b_adapt=2 / b_bias=0 / direct=3 / weightb=1 / open_gop=0 / weightp=2 / keyint=240 / keyint_min=23 / scenecut=40 / intra_refresh=0 / rc_lookahead=60 / rc=2pass / mbtree=0 / bitrate=14000 / ratetol=1.0 / qcomp=0.70 / qpmin=10 / qpmax=51 / qpstep=4 / cplxblur=20.0 / qblur=0.5 / vbv_maxrate=62500 / vbv_bufsize=78125 / nal_hrd=none / filler=0 / ip_ratio=1.40 / pb_ratio=1.20 / aq=3:0.85
Default : Yes
Forced : No
Audio #1
ID : 2
Format : AC-3
Format/Info : Audio Coding 3
Format profile : Dolby Digital
Mode extension : CM (complete main)
Format settings, Endianness : Big
Codec ID : A_AC3
Duration : 1 h 52 min
Bit rate mode : Constant
Bit rate : 384 kb/s
Channel(s) : 2 channels
Channel positions : Front: L R
Sampling rate : 48.0 kHz
Frame rate : 31.250 FPS (1536 spf)
Compression mode : Lossy
Stream size : 308 MiB (3%)
Language : Russian
Default : Yes
Forced : No
Audio #2
ID : 3
Format : AC-3
Format/Info : Audio Coding 3
Mode extension : CM (complete main)
Format settings, Endianness : Big
Codec ID : A_AC3
Duration : 1 h 52 min
Bit rate mode : Constant
Bit rate : 640 kb/s
Channel(s) : 6 channels
Channel positions : Front: L C R, Side: L R, LFE
Sampling rate : 48.0 kHz
Frame rate : 31.250 FPS (1536 spf)
Compression mode : Lossy
Stream size : 514 MiB (4%)
Language : English
Default : No
Forced : No
Text
ID : 4
Format : PGS
Muxing mode : zlib
Codec ID : S_HDMV/PGS
Codec ID/Info : Picture based subtitle format used on BDs/HD-DVDs
Duration : 1 h 45 min
Bit rate : 13.0 kb/s
Count of elements : 3276
Stream size : 9.84 MiB (0%)
Language : English
Default : No
Forced : No
Menu
00:00:00.000 : en:00:00:00.000
00:07:46.966 : en:00:07:46.966
00:19:54.402 : en:00:19:54.402
00:30:57.980 : en:00:30:57.980
00:44:35.422 : en:00:44:35.422
00:52:02.119 : en:00:52:02.119
01:03:44.862 : en:01:03:44.862
01:15:35.029 : en:01:15:35.029
01:22:55.511 : en:01:22:55.511
01:33:38.238 : en:01:33:38.238
01:40:08.167 : en:01:40:08.167
01:48:20.202 : en:01:48:20.202

Скриншоты

[Цитировать]



Показать сообщения:    

Текущее время: 04-Дек 05:00

Часовой пояс: UTC + 3


Вы не можете начинать темы
Вы не можете отвечать на сообщения
Вы не можете редактировать свои сообщения
Вы не можете удалять свои сообщения
Вы не можете голосовать в опросах
Вы не можете прикреплять файлы к сообщениям
Вы не можете скачивать файлы

!ВНИМАНИЕ!
Сайт не предоставляет электронные версии произведений, а занимается лишь коллекционированием и каталогизацией ссылок, присылаемых и публикуемых на форуме нашими читателями. Если вы являетесь правообладателем какого-либо представленного материала и не желаете, чтобы ссылка на него находилась в нашем каталоге, свяжитесь с нами, и мы незамедлительно удалим ее. Файлы для обмена на трекере предоставлены пользователями сайта, и администрация не несет ответственности за их содержание. Просьба не заливать файлы, защищенные авторскими правами, а также файлы нелегального содержания!