[ Сегодня идет свободное скачивание без начисления Download ]


Статистика раздачи
Нет
 
   
 
Top  
 
 
Информация о фильме
Название: Джолин
Оригинальное название: Jolene
Год выхода: 2008
Жанр: Драма
Режиссер: Дэн Айрлэнд
В ролях: Джессика Честейн, Майкл Вартан, Дермот Малруни, Чазз Пальминтери, Руперт Френд, Дэнис Ричардс, Тереза Расселл, Фрэнсис Фишер, Зеб Ньюман, Шэннон Уирри, Дрея Прюсо, Мэри Джейн Джонсон, Джули Следж, Стефани Лайкс, Хосе Росете, Джонатан Симпсон, Шерри Ли, Бенжамин Мутон, Эдди Гуерра, Рон Джонсон, Мэттью Джойс, Эми Лэндерс, Дэбби Бартелт
О фильме:
Джолин — рыжеволосая девушка, с веснушками на лице и очень милой улыбкой. Она прекрасно рисует и даже умеет готовить. Однако за столь короткую жизнь, ей уже довелось пережить горе. Она потеряла своих родителей и теперь живет вместе со своим дядюшкой Филом. Встретив молодого парня Микки, девушка обрела любовь и семью. Однако их счастливый брак очень быстро развалился, из-за того, что дядя уделял Джолин очень много внимания, что повлекло за собой постоянный ссоры. Оставив дом, девушка отправилась путешествовать по стране. За десять лет ей предстоит пройти множество испытаний, взлетов и падений, радостей и печалей. Она познакомится с множеством интересных людей, а также найдет свою настоящую любовь...

Страна: США
Студия: Next Turn Productions
Продолжительность: 02:01:04
Перевод: Любительский двухголосый
Файл
Кодек: h.264
Качество: BDRip 1080p
Видео: MPEG-4 AVC, 15400 Кбит/с, 1920x816, 23.976 кадр/с
Звук:
Русский (AC3, 2 ch, 192 Кбит/с) / Любительский двухголосый (RG Victory Films)
Английский (DTS, 6 ch, 1509 Кбит/с)
Субтитры: Русские, английские
Семпл

О релизе

Автор релиза - Silverok, За BDRemux спасибо vedigo
Субтитры: S_TEXT/UTF8 (SRT) - Русские, английские
За двухголосый перевод спасибо VICTORY.F
За русские субтитры спасибо Langolyer
Сохранены оригинальные главы как на Blu-ray

MI

Общее
Уникальный идентификатор : 183689202375108452135819030163578784687 (0x8A3140E770734686AE57B45AC4AD8BAF)
Полное имя : D:uTorrentDzholin.2008.BDRip.1080p.MediaClub.mkv
Формат : Matroska
Версия формата : Version 4 / Version 2
Размер файла : 14,4 Гбайт
Продолжительность : 2 ч. 1 м.
Общий поток : 17,0 Мбит/сек
Дата кодирования : UTC 2016-08-02 06:17:22
Программа кодирования : mkvmerge v9.3.1 ('Mask Machine') 64bit
Библиотека кодирования : libebml v1.3.4 + libmatroska v1.4.5
Видео
Идентификатор : 1
Формат : AVC
Формат/Информация : Advanced Video Codec
Профиль формата : High@L4.1
Параметр CABAC формата : Да
Параметр ReFrames формата : 5 кадров
Идентификатор кодека : V_MPEG4/ISO/AVC
Продолжительность : 2 ч. 0 м.
Битрейт : 15,4 Мбит/сек
Ширина : 1920 пикселей
Высота : 816 пикселей
Соотношение сторон : 2,35:1
Режим частоты кадров : Постоянный
Частота кадров : 23,976 (24000/1001) кадра/сек
Цветовое пространство : YUV
Субдискретизация насыщенности : 4:2:0
Битовая глубина : 8 бит
Тип развёртки : Прогрессивная
Бит/(Пиксели*Кадры) : 0.409
Размер потока : 13,0 Гбайт (90%)
Заголовок : BDRip by Silverok
Библиотека кодирования : x264 core 148 r2638 7599210
Настройки программы : cabac=1 / ref=5 / deblock=1:-3:-3 / analyse=0x3:0x113 / me=umh / subme=11 / psy=1 / psy_rd=1.00:0.10 / mixed_ref=1 / me_range=32 / chroma_me=1 / trellis=2 / 8x8dct=1 / cqm=0 / deadzone=21,11 / fast_pskip=0 / chroma_qp_offset=-3 / threads=12 / lookahead_threads=3 / sliced_threads=0 / nr=0 / decimate=0 / interlaced=0 / bluray_compat=0 / constrained_intra=0 / bframes=12 / b_pyramid=2 / b_adapt=2 / b_bias=0 / direct=3 / weightb=1 / open_gop=0 / weightp=2 / keyint=240 / keyint_min=24 / scenecut=40 / intra_refresh=0 / rc=2pass / mbtree=0 / bitrate=15360 / ratetol=1.0 / qcomp=0.60 / qpmin=0 / qpmax=69 / qpstep=4 / cplxblur=20.0 / qblur=0.5 / ip_ratio=1.40 / pb_ratio=1.30 / aq=1:1.00
Default : Да
Forced : Нет
Аудио #1
Идентификатор : 2
Формат : AC-3
Формат/Информация : Audio Coding 3
Расширение режима : CM (complete main)
Параметр Endianness формата : Big
Идентификатор кодека : A_AC3
Продолжительность : 2 ч. 1 м.
Вид битрейта : Постоянный
Битрейт : 192 Кбит/сек
Каналы : 2 канала
Расположение каналов : Front: L R
Частота : 48,0 КГц
Частота кадров : 31,250 кадров/сек (1536 spf)
Метод сжатия : С потерями
Размер потока : 166 Мбайт (1%)
Заголовок : Любительский двухголосый (RG Victory Films)
Язык : Russian
Default : Да
Forced : Нет
Аудио #2
Идентификатор : 3
Формат : DTS
Формат/Информация : Digital Theater Systems
Режим : 16
Параметр Endianness формата : Big
Идентификатор кодека : A_DTS
Продолжительность : 2 ч. 1 м.
Вид битрейта : Постоянный
Битрейт : 1509 Кбит/сек
Каналы : 6 каналов
Расположение каналов : Front: L C R, Side: L R, LFE
Частота : 48,0 КГц
Частота кадров : 93,750 кадра/сек (512 spf)
Битовая глубина : 24 бит
Метод сжатия : С потерями
Размер потока : 1,28 Гбайт (9%)
Язык : English
Default : Нет
Forced : Нет
Текст #1
Идентификатор : 4
Формат : UTF-8
Идентификатор кодека : S_TEXT/UTF8
Идентификатор кодека/Информация : UTF-8 Plain Text
Продолжительность : 1 ч. 51 м.
Битрейт : 90 бит/сек
Count of elements : 1375
Размер потока : 73,8 Кбайт (0%)
Язык : Russian
Default : Да
Forced : Нет
Текст #2
Идентификатор : 5
Формат : UTF-8
Идентификатор кодека : S_TEXT/UTF8
Идентификатор кодека/Информация : UTF-8 Plain Text
Продолжительность : 1 ч. 56 м.
Битрейт : 58 бит/сек
Count of elements : 1536
Размер потока : 49,6 Кбайт (0%)
Язык : English
Default : Нет
Forced : Нет
Меню
00:00:00.000 : en:00:00:00.000
00:00:13.013 : en:00:00:13.013
00:03:08.188 : en:00:03:08.188
00:11:08.668 : en:00:11:08.668
00:18:37.116 : en:00:18:37.116
00:24:48.487 : en:00:24:48.487
00:31:52.911 : en:00:31:52.911
00:38:54.332 : en:00:38:54.332
00:47:08.826 : en:00:47:08.826
00:52:28.145 : en:00:52:28.145
01:00:46.643 : en:01:00:46.643
01:13:53.429 : en:01:13:53.429
01:19:03.739 : en:01:19:03.739
01:33:09.584 : en:01:33:09.584
01:40:54.048 : en:01:40:54.048
01:50:19.613 : en:01:50:19.613
01:53:46.820 : en:01:53:46.820

Скриншоты

[Цитировать]



Показать сообщения:    

Текущее время: 07-Дек 21:11

Часовой пояс: UTC + 3


Вы не можете начинать темы
Вы не можете отвечать на сообщения
Вы не можете редактировать свои сообщения
Вы не можете удалять свои сообщения
Вы не можете голосовать в опросах
Вы не можете прикреплять файлы к сообщениям
Вы не можете скачивать файлы

!ВНИМАНИЕ!
Сайт не предоставляет электронные версии произведений, а занимается лишь коллекционированием и каталогизацией ссылок, присылаемых и публикуемых на форуме нашими читателями. Если вы являетесь правообладателем какого-либо представленного материала и не желаете, чтобы ссылка на него находилась в нашем каталоге, свяжитесь с нами, и мы незамедлительно удалим ее. Файлы для обмена на трекере предоставлены пользователями сайта, и администрация не несет ответственности за их содержание. Просьба не заливать файлы, защищенные авторскими правами, а также файлы нелегального содержания!