[ Сегодня идет свободное скачивание без начисления Download ]


Статистика раздачи
Нет
 
   
 
Top  
 
 
Пеле: Рождение легенды / Pelé: Birth of a Legend (2016) BDRip 1080p Информация о фильме
Название: Пеле: Рождение легенды
Оригинальное название: Pelé: Birth of a Legend
Год выхода: 2016
Жанр: Драма, биография, спорт
Режиссер: Джефф Цимбалист, Майкл Цимбалист
В ролях: Винсент Д`Онофрио, Родриго Санторо, Диего Бонета, Колм Мини, Сеу Жоржи, Андре Маттос, Свен Холмберг
О фильме:
Биографическая драма расскажет о закулисье спорта, в частности о жизни величайшего игрока в истории футбола — Пеле. Зрители станут свидетелями непростой жизни бразильской легенды спорта. Сколько преград тому удалось преодолеть на своем пути, чтобы добиться мировой популярности? Это сейчас он демонстрирует невероятные профессиональные достижения и вдобавок ко всему не забывает о благородных делах, но раньше все было по-другому. С ранних лет Пеле жаждал получить признание, неустанно шел к своей мечте, преодолевая препятствия, тем самым закаляя свой характер. Картина охватывает детство футболиста, вплоть до победы на первом этапе Кубка мира в Швеции, когда Пеле было семнадцать лет. Судьба не всегда была благосклонна к спортсмену, однако за каждой успешной личности стоит огромный труд, железная воля и твердая уверенность в собственных силах.

Страна: США
Студия: Imagine Entertainment, Seine Pictures , Zohar International
Продолжительность: 01:47:15
Перевод: Дублированный | iTunes
Файл
Кодек: MPEG-4
Качество: BDRip 1080p
Видео: 1920x800, 10.9 Mbit/s, 23.976 fps
Звук:
Аудио #01: 48 kHz, AC3, 5.1, 384 Kbps | Дублированный | iTunes |AC3
Аудио #02: 48 kHz, DTS, 5.1, 1510 kbps | Оригинал |DTS
Субтитры: Английские

MI

General
Unique ID : 180302729502203284254761417928612265519 (0x87A50AE68AF75E069359DC4F52443E2F)
Complete name : G:VideoНовая папкаPele.Birth.Of.A.Legend.2016.BDRip.1080p.ExKinoRay.mkv
Format : Matroska
Format version : Version 4 / Version 2
File size : 9.61 GiB
Duration : 1h 47mn
Overall bit rate : 12.8 Mbps
Movie name : Pele.Birth.Of.A.Legend.2016.BDRip.1080p.selezen
Encoded date : UTC 2016-08-03 22:32:36
Writing application : mkvmerge v8.3.0 ('Over the Horizon') 64bit
Writing library : libebml v1.3.1 + libmatroska v1.4.2
Video
ID : 1
Format : AVC
Format/Info : Advanced Video Codec
Format profile : [email protected]
Format settings, CABAC : Yes
Format settings, ReFrames : 5 frames
Codec ID : V_MPEG4/ISO/AVC
Duration : 1h 47mn
Bit rate : 10.9 Mbps
Width : 1 920 pixels
Height : 800 pixels
Display aspect ratio : 2.40:1
Frame rate mode : Constant
Frame rate : 23.976 (24000/1001) fps
Color space : YUV
Chroma subsampling : 4:2:0
Bit depth : 8 bits
Scan type : Progressive
Bits/(Pixel*Frame) : 0.297
Stream size : 8.19 GiB (85%)
Writing library : x264 core 148 r2705 3f5ed56
Encoding settings : cabac=1 / ref=5 / deblock=1:-3:-3 / analyse=0x3:0x133 / me=umh / subme=11 / psy=1 / psy_rd=0.95:0.10 / mixed_ref=1 / me_range=64 / chroma_me=1 / trellis=2 / 8x8dct=1 / cqm=0 / deadzone=21,11 / fast_pskip=0 / chroma_qp_offset=-2 / threads=25 / lookahead_threads=4 / sliced_threads=0 / nr=0 / decimate=1 / interlaced=0 / bluray_compat=0 / constrained_intra=0 / bframes=8 / b_pyramid=2 / b_adapt=2 / b_bias=0 / direct=3 / weightb=1 / open_gop=0 / weightp=2 / keyint=250 / keyint_min=23 / scenecut=40 / intra_refresh=0 / rc_lookahead=120 / rc=crf / mbtree=1 / crf=15.2 / qcomp=0.60 / qpmin=0 / qpmax=69 / qpstep=4 / vbv_maxrate=50000 / vbv_bufsize=55000 / crf_max=0.0 / nal_hrd=none / filler=0 / ip_ratio=1.40 / aq=3:0.80 / zones=146141,154064,crf=25
Language : English
Default : Yes
Forced : No
Color range : Limited
Color primaries : BT.709
Transfer characteristics : BT.709
Matrix coefficients : BT.709
Audio #1
ID : 2
Format : AC-3
Format/Info : Audio Coding 3
Mode extension : CM (complete main)
Format settings, Endianness : Big
Codec ID : A_AC3
Duration : 1h 47mn
Bit rate mode : Constant
Bit rate : 384 Kbps
Channel(s) : 6 channels
Channel positions : Front: L C R, Side: L R, LFE
Sampling rate : 48.0 KHz
Frame rate : 31.250 fps (1536 spf)
Compression mode : Lossy
Stream size : 294 MiB (3%)
Title : DUB [iTunes]
Language : Russian
Default : Yes
Forced : No
Audio #2
ID : 3
Format : DTS
Format/Info : Digital Theater Systems
Mode : 16
Format settings, Endianness : Big
Codec ID : A_DTS
Duration : 1h 47mn
Bit rate mode : Constant
Bit rate : 1 509 Kbps
Channel(s) : 6 channels
Channel positions : Front: L C R, Side: L R, LFE
Sampling rate : 48.0 KHz
Frame rate : 93.750 fps (512 spf)
Bit depth : 24 bits
Compression mode : Lossy
Stream size : 1.13 GiB (12%)
Title : Original
Language : English
Default : No
Forced : No
Text
ID : 4
Format : UTF-8
Codec ID : S_TEXT/UTF8
Codec ID/Info : UTF-8 Plain Text
Duration : 1h 40mn
Bit rate : 65 bps
Count of elements : 1361
Stream size : 48.2 KiB (0%)
Title : Full
Language : English
Default : No
Forced : No
Menu
00:00:00.000 : en:Chapter 1
00:08:37.808 : en:Chapter 2
00:15:48.155 : en:Chapter 3
00:27:30.982 : en:Chapter 4
00:34:55.093 : en:Chapter 5
00:43:33.569 : en:Chapter 6
00:53:53.772 : en:Chapter 7
01:04:19.730 : en:Chapter 8
01:14:40.309 : en:Chapter 9
01:21:35.056 : en:Chapter 10
01:29:41.000 : en:Chapter 11
01:42:00.072 : en:Chapter 12

Скриншоты

[Цитировать]



Показать сообщения:    

Текущее время: 05-Дек 11:28

Часовой пояс: UTC + 3


Вы не можете начинать темы
Вы не можете отвечать на сообщения
Вы не можете редактировать свои сообщения
Вы не можете удалять свои сообщения
Вы не можете голосовать в опросах
Вы не можете прикреплять файлы к сообщениям
Вы не можете скачивать файлы

!ВНИМАНИЕ!
Сайт не предоставляет электронные версии произведений, а занимается лишь коллекционированием и каталогизацией ссылок, присылаемых и публикуемых на форуме нашими читателями. Если вы являетесь правообладателем какого-либо представленного материала и не желаете, чтобы ссылка на него находилась в нашем каталоге, свяжитесь с нами, и мы незамедлительно удалим ее. Файлы для обмена на трекере предоставлены пользователями сайта, и администрация не несет ответственности за их содержание. Просьба не заливать файлы, защищенные авторскими правами, а также файлы нелегального содержания!