[ Сегодня идет свободное скачивание без начисления Download ]


Статистика раздачи
Нет
 
   
 
Top  
 
 
Эквилибриум / Equilibrium
«The only thing more powerful than the system, is the man that will overthrow it.»
?Год выпуска: 2002
?Страна: США
?Производство: Dimension Films
?Жанр: Фантастика, боевик, триллер, драма
?Режиссёр: Курт Уиммер
?В ролях: Кристиан Бэйл, Тэй Диггз, Энгус МакФадьен, Шон Бин, Эмили Уотсон, Уильям Фихтнер, Мэттью Харбор, Эмили Сьеверт, Шон Пертуи, Доминик Пурселл.
?Перевод: Профессиональный (полное дублирование)
?Субтитры: Отсутствуют
?Описание: Действие происходит в будущем, когда люди лишены возможности выражать какие-то эмоции, потому, что они… запрещены. Это — та цена, которую человечество платит за устранение из своей жизни войны. Теперь книги, искусство и музыка находятся вне закона. А любое чувство — уже преступление, наказуемое смертью...

?Качество: HDRip
?Продолжительность: 01:47:02 час.
?Формат: AVI
?Видео кодек: XviD
?Аудио кодек: AC3
?Видео: 720x304 (2.35:1), 23.976 fps, XviD build 50 ~1494 kbps avg, 0.28 bit/pixel
?Аудио: 48 kHz, AC3 Dolby Digital, 3/2 (L,C,R,l,r) + LFE ch, ~448 kbps

MediaInfo

General
Complete name : D:\фильмы\Ekvilibrium.2002.HDRip.avi
Format : AVI
Format/Info : Audio Video Interleave
File size : 1.46 GiB
Duration : 1h 47mn
Overall bit rate : 1 952 Kbps
Video
ID : 0
Format : MPEG-4 Visual
Format profile : Advanced [email protected]
Format settings, BVOP : 1
Format settings, QPel : No
Format settings, GMC : No warppoints
Format settings, Matrix : Custom
Codec ID : XVID
Codec ID/Hint : XviD
Duration : 1h 47mn
Bit rate : 1 495 Kbps
Width : 720 pixels
Height : 304 pixels
Display aspect ratio : 2.35:1
Frame rate : 23.976 fps
Color space : YUV
Chroma subsampling : 4:2:0
Bit depth : 8 bits
Scan type : Progressive
Compression mode : Lossy
Bits/(Pixel*Frame) : 0.285
Stream size : 1.12 GiB (77%)
Writing library : XviD 1.2.1 (UTC 2008-12-04)
Audio
ID : 1
Format : AC-3
Format/Info : Audio Coding 3
Mode extension : CM (complete main)
Codec ID : 2000
Duration : 1h 47mn
Bit rate mode : Constant
Bit rate : 448 Kbps
Channel(s) : 6 channels
Channel positions : Front: L C R, Side: L R, LFE
Sampling rate : 48.0 KHz
Bit depth : 16 bits
Compression mode : Lossy
Stream size : 343 MiB (23%)
Alignment : Split accross interleaves
Interleave, duration : 42 ms (1.00 video frame)
Interleave, preload duration : 500 ms
[th]http://torrentsclub.org/pictures/d83067c5232f327ab4...c4e4d61.png[/th] [th]http://torrentsclub.org/pictures/6e68296ba22ea7d33c...84823b9.png[/th] [th]http://torrentsclub.org/pictures/59046f9106b4758e5f...20a2702.png[/th] [Стол заказов][Прием РГ][О нас "RG Dark Lords]

[Цитировать]



Показать сообщения:    

Текущее время: 04-Дек 07:02

Часовой пояс: UTC + 3


Вы не можете начинать темы
Вы не можете отвечать на сообщения
Вы не можете редактировать свои сообщения
Вы не можете удалять свои сообщения
Вы не можете голосовать в опросах
Вы не можете прикреплять файлы к сообщениям
Вы не можете скачивать файлы

!ВНИМАНИЕ!
Сайт не предоставляет электронные версии произведений, а занимается лишь коллекционированием и каталогизацией ссылок, присылаемых и публикуемых на форуме нашими читателями. Если вы являетесь правообладателем какого-либо представленного материала и не желаете, чтобы ссылка на него находилась в нашем каталоге, свяжитесь с нами, и мы незамедлительно удалим ее. Файлы для обмена на трекере предоставлены пользователями сайта, и администрация не несет ответственности за их содержание. Просьба не заливать файлы, защищенные авторскими правами, а также файлы нелегального содержания!