[ Сегодня идет свободное скачивание без начисления Download ]


Статистика раздачи
Нет
 
   
 
Top  
 
 
Тарзан. Легенда / The Legend of Tarzan (2016) WEBRip - Производство: США / Dark Horse Entertainment, Jerry Weintraub Productions, Riche Productions
Жанр: Боевик, Приключения
Режиссер: Дэвид Йэтс
Продюсер: Дэвид Баррон, Брюс Берман, Scott Cherrin
Актеры: Александр Скашгод, Марго Робби, Кристоф Вальц, Сэмюэль Л. Джексон, Джимон Хонсу, Джон Херт, Саймон Расселл Бил, Элла Пернелл
Описание:
Приспособившийся к жизни в Лондоне Тарзан возвращается в свой бывший дом, в джунгли, чтобы разобраться в том, что происходит в лагере горнодобывающей компании.
СЭМПЛ
Рейтинг MPAA: PG-13 (детям до 13 лет просмотр нежелателен)
Дата мировой премьеры: 30 июня 2016
Дата премьеры в России: 30 июня 2016, «Каро-Премьер»

Продолжительность: 01:47:37
Качество видео: WEBRip
Перевод: Дублированный (Звук c TS)
Вид субтитров: Вшитые не отключаемые
Язык субтитров: Корейский
Реклама: Присутствуют голосовые и текстовые вставки.
Видео: AVC, 1280x532 (2.40:1), 24.000 fps, 4 000 Kbps (0.218 bit/pixel)
Аудио: AC-3, 48.0 KHz, 2 ch, 192 Kbps, CBR

MediaInfo

General
Unique ID : 198018418949980931154906734523555456685 (0x94F8F5D392B34A329ACC01EEEC2326AD)
Complete name : E:\Tarzan.2016.WEBRip.720p.mkv
Format : Matroska
Format version : Version 2
File size : 2.94 GiB
Duration : 1h 50mn
Overall bit rate mode : Constant
Overall bit rate : 3 831 Kbps
Encoded date : UTC 2016-08-02 22:18:38
Writing application : mkvmerge v8.3.0 ('Over the Horizon') 64bit
Writing library : libebml v1.3.1 + libmatroska v1.4.2
Video
ID : 1
Format : AVC
Format/Info : Advanced Video Codec
Format profile : High@L4.1
Format settings, CABAC : Yes
Format settings, ReFrames : 12 frames
Codec ID : V_MPEG4/ISO/AVC
Duration : 1h 50mn
Bit rate mode : Constant
Bit rate : 3 637 Kbps
Nominal bit rate : 4 000 Kbps
Width : 1 280 pixels
Height : 532 pixels
Display aspect ratio : 2.40:1
Frame rate mode : Constant
Frame rate : 24.000 fps
Standard : Component
Color space : YUV
Chroma subsampling : 4:2:0
Bit depth : 8 bits
Scan type : Progressive
Bits/(Pixel*Frame) : 0.223
Stream size : 2.80 GiB (95%)
Default : Yes
Forced : No
Color range : Limited
Color primaries : BT.709
Transfer characteristics : BT.709
Matrix coefficients : BT.709
Audio
ID : 2
Format : AC-3
Format/Info : Audio Coding 3
Mode extension : CM (complete main)
Format settings, Endianness : Big
Codec ID : A_AC3
Duration : 1h 50mn
Bit rate mode : Constant
Bit rate : 192 Kbps
Channel(s) : 2 channels
Channel positions : Front: L R
Sampling rate : 48.0 KHz
Frame rate : 31.250 fps (1536 spf)
Compression mode : Lossy
Stream size : 151 MiB (5%)
Default : Yes
Forced : No
Скриншоты:

[Цитировать]



Показать сообщения:    

Текущее время: 11-Дек 14:59

Часовой пояс: UTC + 3


Вы не можете начинать темы
Вы не можете отвечать на сообщения
Вы не можете редактировать свои сообщения
Вы не можете удалять свои сообщения
Вы не можете голосовать в опросах
Вы не можете прикреплять файлы к сообщениям
Вы не можете скачивать файлы

!ВНИМАНИЕ!
Сайт не предоставляет электронные версии произведений, а занимается лишь коллекционированием и каталогизацией ссылок, присылаемых и публикуемых на форуме нашими читателями. Если вы являетесь правообладателем какого-либо представленного материала и не желаете, чтобы ссылка на него находилась в нашем каталоге, свяжитесь с нами, и мы незамедлительно удалим ее. Файлы для обмена на трекере предоставлены пользователями сайта, и администрация не несет ответственности за их содержание. Просьба не заливать файлы, защищенные авторскими правами, а также файлы нелегального содержания!