[ Today is free to download without increasing Download ]

DL-List and Torrent activity
Тарзан. Легенда / The Legend of Tarzan (2016) WEBRip - Производство: США / Dark Horse Entertainment, Jerry Weintraub Productions, Riche Productions
Жанр: Боевик, Приключения
Режиссер: Дэвид Йэтс
Продюсер: Дэвид Баррон, Брюс Берман, Scott Cherrin
Актеры: Александр Скашгод, Марго Робби, Кристоф Вальц, Сэмюэль Л. Джексон, Джимон Хонсу, Джон Херт, Саймон Расселл Бил, Элла Пернелл
Приспособившийся к жизни в Лондоне Тарзан возвращается в свой бывший дом, в джунгли, чтобы разобраться в том, что происходит в лагере горнодобывающей компании.
Рейтинг MPAA: PG-13 (детям до 13 лет просмотр нежелателен)
Дата мировой премьеры: 30 июня 2016
Дата премьеры в России: 30 июня 2016, «Каро-Премьер»

Продолжительность: 01:47:37
Качество видео: WEBRip
Перевод: Дублированный (Звук c TS)
Вид субтитров: Вшитые не отключаемые
Язык субтитров: Корейский
Реклама: Присутствуют голосовые и текстовые вставки.
Видео: AVC, 1280x532 (2.40:1), 24.000 fps, 4 000 Kbps (0.218 bit/pixel)
Аудио: AC-3, 48.0 KHz, 2 ch, 192 Kbps, CBR


Unique ID : 198018418949980931154906734523555456685 (0x94F8F5D392B34A329ACC01EEEC2326AD)
Complete name : E:\Tarzan.2016.WEBRip.720p.mkv
Format : Matroska
Format version : Version 2
File size : 2.94 GiB
Duration : 1h 50mn
Overall bit rate mode : Constant
Overall bit rate : 3 831 Kbps
Encoded date : UTC 2016-08-02 22:18:38
Writing application : mkvmerge v8.3.0 ('Over the Horizon') 64bit
Writing library : libebml v1.3.1 + libmatroska v1.4.2
ID : 1
Format : AVC
Format/Info : Advanced Video Codec
Format profile : High@L4.1
Format settings, CABAC : Yes
Format settings, ReFrames : 12 frames
Duration : 1h 50mn
Bit rate mode : Constant
Bit rate : 3 637 Kbps
Nominal bit rate : 4 000 Kbps
Width : 1 280 pixels
Height : 532 pixels
Display aspect ratio : 2.40:1
Frame rate mode : Constant
Frame rate : 24.000 fps
Standard : Component
Color space : YUV
Chroma subsampling : 4:2:0
Bit depth : 8 bits
Scan type : Progressive
Bits/(Pixel*Frame) : 0.223
Stream size : 2.80 GiB (95%)
Default : Yes
Forced : No
Color range : Limited
Color primaries : BT.709
Transfer characteristics : BT.709
Matrix coefficients : BT.709
ID : 2
Format : AC-3
Format/Info : Audio Coding 3
Mode extension : CM (complete main)
Format settings, Endianness : Big
Codec ID : A_AC3
Duration : 1h 50mn
Bit rate mode : Constant
Bit rate : 192 Kbps
Channel(s) : 2 channels
Channel positions : Front: L R
Sampling rate : 48.0 KHz
Frame rate : 31.250 fps (1536 spf)
Compression mode : Lossy
Stream size : 151 MiB (5%)
Default : Yes
Forced : No


Display posts:    

Current time is: 24-Oct 23:07

All times are UTC + 3

You cannot post new topics in this forum
You cannot reply to topics in this forum
You cannot edit your posts in this forum
You cannot delete your posts in this forum
You cannot vote in polls in this forum
You cannot attach files in this forum
You cannot download files in this forum

The site does not give electronic versions of products, and is engaged only in a collecting and cataloguing of the references sent and published at a forum by our readers. If you are the legal owner of any submitted material and do not wish that the reference to it was in our catalogue, contact us and we shall immediately remove her. Files for an exchange on tracker are given by users of a site, and the administration does not bear the responsibility for their maintenance. The request to not fill in the files protected by copyrights, and also files of the illegal maintenance!