[ Today is free to download without increasing Download ]

DL-List and Torrent activity
Страх глубины / In the Deep (2016) DVDRip
«No help above, no hope below»
- Производство: Великобритания / Dimension Films, Flexibon Films
Жанр: Триллер
Режиссер: Йоханнес Робертс
Продюсер: Джеймс Харрис, Марк Лэйн, Иэн Абрахамс
Актеры: Мэттью Модайн, Мэнди Мур, Клер Холт, Сантьяго Сегура, Яни Гельман, Крис Дж. Джонсон
В центре сюжета — сестры Кейт и Лиза, приехавшие на отдых в Мексику. В поисках острых ощущений Кейт убеждает сестру опуститься под воду в клетке и посмотреть на белых акул. Клетка обрывается, и девушки оказываются на глубине 47 метров с запасом кислорода менее чем на час в двух часах пути от берега в окружении самых опасных морских хищников.

Дата мировой премьеры: 2 августа 2016
Продолжительность: 01:28:57
Качество видео: DVDRip СЭМПЛ
Перевод: Любительский (многоголосый, закадровый) СПД
Субтитры: Отсутствуют
Реклама: Присутствуют вставки звуковой и текстовой рекламы
Видео: Xvid, 720x304 (2.35:1), 23.976 fps, 1807 Kbps (0.344 bit/pixel)
Аудио: AC3, 2 ch, 384 kbps, CBR


Complete name                  : C:\Фильмы\In.The.Deep.2016.DVDRip.avi
Format                         : AVI
Format/Info                    : Audio Video Interleave
File size                      : 1.37 GiB
Duration                       : 1h 28mn
Overall bit rate               : 2 200 Kbps
Writing application            : VirtualDubMod (build 2540/release)
Writing library                : VirtualDubMod build 2540/release
ID                             : 0
Format                         : MPEG-4 Visual
Format profile                 : Advanced Simple@L5
Format settings, BVOP          : 2
Format settings, QPel          : No
Format settings, GMC           : No warppoints
Format settings, Matrix        : Custom
Codec ID                       : XVID
Codec ID/Hint                  : XviD
Duration                       : 1h 28mn
Bit rate                       : 1 807 Kbps
Width                          : 720 pixels
Height                         : 304 pixels
Display aspect ratio           : 2.35:1
Frame rate                     : 23.976 fps
Color space                    : YUV
Chroma subsampling             : 4:2:0
Bit depth                      : 8 bits
Scan type                      : Progressive
Compression mode               : Lossy
Bits/(Pixel*Frame)             : 0.344
Stream size                    : 1.12 GiB (82%)
Writing library                : XviD 1.2.1 (UTC 2008-12-04)
ID                             : 1
Format                         : AC-3
Format/Info                    : Audio Coding 3
Mode extension                 : CM (complete main)
Format settings, Endianness    : Big
Codec ID                       : 2000
Duration                       : 1h 28mn
Bit rate mode                  : Constant
Bit rate                       : 384 Kbps
Channel(s)                     : 2 channels
Channel positions              : Front: L R
Sampling rate                  : 48.0 KHz
Compression mode               : Lossy
Stream size                    : 244 MiB (17%)
Alignment                      : Split accross interleaves
Interleave, duration           : 42 ms (1.00 video frame)
Interleave, preload duration   : 500 ms


Display posts:    

Current time is: 28-Oct 11:22

All times are UTC + 3

You cannot post new topics in this forum
You cannot reply to topics in this forum
You cannot edit your posts in this forum
You cannot delete your posts in this forum
You cannot vote in polls in this forum
You cannot attach files in this forum
You cannot download files in this forum

The site does not give electronic versions of products, and is engaged only in a collecting and cataloguing of the references sent and published at a forum by our readers. If you are the legal owner of any submitted material and do not wish that the reference to it was in our catalogue, contact us and we shall immediately remove her. Files for an exchange on tracker are given by users of a site, and the administration does not bear the responsibility for their maintenance. The request to not fill in the files protected by copyrights, and also files of the illegal maintenance!