[ Сегодня идет свободное скачивание без начисления Download ]


Статистика раздачи
Скачал: [ 1 ]
 
   
 
Top  
 
 
Зодиак / Zodiac (Director's cut)
«Есть много способов умереть от руки убийцы»
Название: Зодиак
Оригинальное название: Zodiac
Год выпуска: 2007
Жанр: Триллер, драма, криминал, детектив, экранизация
Выпущено: США, Digital Domain, Mar Vista Ventures, Matte World Digital, Ollin Studio
Режиссер: Дэвид Финчер
В ролях: Джейк Джилленхол, Марк Руффало, Энтони Эдвардс, Роберт Дауни мл., Брайан Кокс, Джон Кэрролл Линч, Ричмонд Аркетт, Роберт Дж. Стефенсон, Джон Лэси, Клоэ Севиньи, Джон Гетз, Джон Терри, Кэнди Кларк, Элиас Котеас, Дермот Малруни, Донал Лог, Джун Рафаэль, Сиара Хьюз, Ли Норрис, Филип Бэйкер Холл, Пелл Джеймс, Дэвид Ли Смит, Чарльз Шнайдер, Жуль Брафф, Адам Голдберг, Адам Трези
О фильме: На протяжении почти 25 лет он держал в страхе весь Сан-Франциско. Общаясь с властями через репортеров, он в своих письмах и шифрах жестоко упрекал полицию в бездействии. «Зодиак» то пропадал на время, то появлялся вновь. Порой полиция начинала сомневаться в том, что за очередным убийством стоял именно тот, за кем они так тщетно охотились, а не какой-нибудь имитатор. Однако и почерк убийств и письма репортерам говорили о том, что «Зодиак» еще не отошел от дел.

Качество: BDRip 720p
Контейнер (Расширение): MKV
Видео: 1280x534, 4250 Кбитсек, 23,976 кадрсек, 0,259 Бит[ПикселиКадры]
Аудио №1: русский AC3 5.1 48 kHz 640 kbps 16 bit - Дублированный + субтитры
Аудио №2: русский AC3 5.1 48 kHz 448 kbps 16 bit - Дублированный + вставки Д.Штампа
Аудио №3: русский AC3 5.1 48 kHz 384 kbps 16 bit - Дублированный + вставки Гаврилова
Аудио №4: русский AC3 5.1 48 kHz 384 kbps 16 bit - Профессиональный многоголосый, Киномания + вставки Гаврилова
Аудио №5: русский AC3 5.1 48 kHz 448 kbps 16 bit - Авторский одноголосый, Гаврилов
Аудио №6: русский AC3 5.1 48 kHz 384 kbps 16 bit - Авторский одноголосый, Королёв + вставки Гаврилова
Аудио №7: английский AC3 5.1 48 kHz 640 kbps 16 bit
Навигация по главам(Чаптеры): есть
Субтитры: русские (Forced), русские, английские
Продолжительность: 02:42:36

MediaInfo

Format : Matroska
Format version : Version 2
File size : 8.61 GiB
Duration : 2h 42mn
Overall bit rate : 7 579 Kbps
Movie name : Zodiac.2007.BDRip.720p.[denis100].Director's cut
Encoded date : UTC 2016-08-04 06:53:25
Writing application : mkvmerge v5.8.0 ('No Sleep / Pillow') built on Sep 2 2012 15:37:04
Writing library : libebml v1.2.3 + libmatroska v1.3.0
Video
ID : 1
Format : AVC
Format/Info : Advanced Video Codec
Format profile : High@L4.1
Format settings, CABAC : Yes
Format settings, ReFrames : 11 frames
Codec ID : V_MPEG4/ISO/AVC
Duration : 2h 42mn
Bit rate : 4 250 Kbps
Width : 1 280 pixels
Height : 534 pixels
Display aspect ratio : 2.40:1
Frame rate mode : Constant
Frame rate : 23.976 fps
Color space : YUV
Chroma subsampling : 4:2:0
Bit depth : 8 bits
Scan type : Progressive
Bits/(Pixel*Frame) : 0.259
Stream size : 4.66 GiB (54%)
Title : Zodiac.2007.BDRip.720p.[denis100].Director's cut
Writing library : x264 core 148 r2705 3f5ed56
Encoding settings : cabac=1 / ref=11 / deblock=1:-3:-3 / analyse=0x3:0x133 / me=umh / subme=11 / psy=1 / psy_rd=1.00:0.00 / mixed_ref=1 / me_range=32 / chroma_me=1 / trellis=2 / 8x8dct=1 / cqm=0 / deadzone=21,11 / fast_pskip=0 / chroma_qp_offset=-2 / threads=6 / lookahead_threads=1 / sliced_threads=0 / nr=0 / decimate=1 / interlaced=0 / bluray_compat=0 / constrained_intra=0 / bframes=9 / b_pyramid=2 / b_adapt=2 / b_bias=0 / direct=3 / weightb=1 / open_gop=0 / weightp=2 / keyint=240 / keyint_min=23 / scenecut=40 / intra_refresh=0 / rc=2pass / mbtree=0 / bitrate=4250 / ratetol=1.0 / qcomp=0.60 / qpmin=0 / qpmax=69 / qpstep=4 / cplxblur=20.0 / qblur=0.5 / ip_ratio=1.40 / pb_ratio=1.30 / aq=1:1.00
Language : English
Default : Yes
Forced : No
Audio #1
ID : 2
Format : AC-3
Format/Info : Audio Coding 3
Mode extension : CM (complete main)
Format settings, Endianness : Big
Codec ID : A_AC3
Duration : 2h 42mn
Bit rate mode : Constant
Bit rate : 640 Kbps
Channel(s) : 6 channels
Channel positions : Front: L C R, Side: L R, LFE
Sampling rate : 48.0 KHz
Compression mode : Lossy
Stream size : 744 MiB (8%)
Title : Дубляж
Language : Russian
Default : Yes
Forced : No
Audio #2
ID : 3
Format : AC-3
Format/Info : Audio Coding 3
Mode extension : CM (complete main)
Format settings, Endianness : Big
Codec ID : A_AC3
Duration : 2h 42mn
Bit rate mode : Constant
Bit rate : 448 Kbps
Channel(s) : 6 channels
Channel positions : Front: L C R, Side: L R, LFE
Sampling rate : 48.0 KHz
Compression mode : Lossy
Stream size : 521 MiB (6%)
Title : Дубляж + Д.Штамп
Language : Russian
Default : No
Forced : No
Audio #3
ID : 4
Format : AC-3
Format/Info : Audio Coding 3
Mode extension : CM (complete main)
Format settings, Endianness : Big
Codec ID : A_AC3
Duration : 2h 42mn
Bit rate mode : Constant
Bit rate : 384 Kbps
Channel(s) : 6 channels
Channel positions : Front: L C R, Side: L R, LFE
Sampling rate : 48.0 KHz
Compression mode : Lossy
Stream size : 447 MiB (5%)
Title : Дубляж + А.Гаврилов
Language : Russian
Default : No
Forced : No
Audio #4
ID : 5
Format : AC-3
Format/Info : Audio Coding 3
Mode extension : CM (complete main)
Format settings, Endianness : Big
Codec ID : A_AC3
Duration : 2h 42mn
Bit rate mode : Constant
Bit rate : 384 Kbps
Channel(s) : 6 channels
Channel positions : Front: L C R, Side: L R, LFE
Sampling rate : 48.0 KHz
Compression mode : Lossy
Stream size : 447 MiB (5%)
Title : MVO, Киномания + А.Гаврилов
Language : Russian
Default : No
Forced : No
Audio #5
ID : 6
Format : AC-3
Format/Info : Audio Coding 3
Mode extension : CM (complete main)
Format settings, Endianness : Big
Codec ID : A_AC3
Duration : 2h 42mn
Bit rate mode : Constant
Bit rate : 448 Kbps
Channel(s) : 6 channels
Channel positions : Front: L C R, Side: L R, LFE
Sampling rate : 48.0 KHz
Compression mode : Lossy
Stream size : 521 MiB (6%)
Title : AVO, А.Гаврилов
Language : Russian
Default : No
Forced : No
Audio #6
ID : 7
Format : AC-3
Format/Info : Audio Coding 3
Mode extension : CM (complete main)
Format settings, Endianness : Big
Codec ID : A_AC3
Duration : 2h 42mn
Bit rate mode : Constant
Bit rate : 384 Kbps
Channel(s) : 6 channels
Channel positions : Front: L C R, Side: L R, LFE
Sampling rate : 48.0 KHz
Compression mode : Lossy
Stream size : 447 MiB (5%)
Title : AVO, Королёв + А.Гаврилов
Language : Russian
Default : No
Forced : No
Audio #7
ID : 8
Format : AC-3
Format/Info : Audio Coding 3
Mode extension : CM (complete main)
Format settings, Endianness : Big
Codec ID : A_AC3
Duration : 2h 42mn
Bit rate mode : Constant
Bit rate : 640 Kbps
Channel(s) : 6 channels
Channel positions : Front: L C R, Side: L R, LFE
Sampling rate : 48.0 KHz
Compression mode : Lossy
Stream size : 744 MiB (8%)
Language : English
Default : No
Forced : No
Text #1
ID : 9
Format : UTF-8
Codec ID : S_TEXT/UTF8
Codec ID/Info : UTF-8 Plain Text
Title : Forced
Language : Russian
Default : Yes
Forced : No
Text #2
ID : 10
Format : UTF-8
Codec ID : S_TEXT/UTF8
Codec ID/Info : UTF-8 Plain Text
Language : Russian
Default : No
Forced : No
Text #3
ID : 11
Format : UTF-8
Codec ID : S_TEXT/UTF8
Codec ID/Info : UTF-8 Plain Text
Language : English
Default : No
Forced : No
Menu
00:00:00.000 : en:00:00:00.000
00:06:19.212 : en:00:06:19.212
00:14:27.366 : en:00:14:27.366
00:17:39.058 : en:00:17:39.058
00:24:19.458 : en:00:24:19.458
00:31:34.226 : en:00:31:34.226
00:36:32.524 : en:00:36:32.524
00:42:18.369 : en:00:42:18.369
00:49:14.618 : en:00:49:14.618
00:55:51.014 : en:00:55:51.014
01:01:02.158 : en:01:01:02.158
01:06:51.507 : en:01:06:51.507
01:12:12.161 : en:01:12:12.161
01:17:48.664 : en:01:17:48.664
01:21:38.727 : en:01:21:38.727
01:34:37.171 : en:01:34:37.171
01:36:57.979 : en:01:36:57.979
01:41:54.275 : en:01:41:54.275
01:47:57.638 : en:01:47:57.638
01:56:02.455 : en:01:56:02.455
02:01:21.107 : en:02:01:21.107
02:07:19.966 : en:02:07:19.966
02:14:15.381 : en:02:14:15.381
02:21:36.154 : en:02:21:36.154
02:28:03.374 : en:02:28:03.374
02:34:35.433 : en:02:34:35.433
02:39:27.391 : en:02:39:27.391
02:42:36.705 : en:02:42:36.705

x264

x264 [info]: frame I:2001 Avg QP:11.70 size:146948
x264 [info]: frame P:47842 Avg QP:14.01 size: 50593
x264 [info]: frame B:184056 Avg QP:15.20 size: 13402

Скриншоты

[Цитировать]



Показать сообщения:    

Текущее время: 09-Дек 01:02

Часовой пояс: UTC + 3


Вы не можете начинать темы
Вы не можете отвечать на сообщения
Вы не можете редактировать свои сообщения
Вы не можете удалять свои сообщения
Вы не можете голосовать в опросах
Вы не можете прикреплять файлы к сообщениям
Вы не можете скачивать файлы

!ВНИМАНИЕ!
Сайт не предоставляет электронные версии произведений, а занимается лишь коллекционированием и каталогизацией ссылок, присылаемых и публикуемых на форуме нашими читателями. Если вы являетесь правообладателем какого-либо представленного материала и не желаете, чтобы ссылка на него находилась в нашем каталоге, свяжитесь с нами, и мы незамедлительно удалим ее. Файлы для обмена на трекере предоставлены пользователями сайта, и администрация не несет ответственности за их содержание. Просьба не заливать файлы, защищенные авторскими правами, а также файлы нелегального содержания!