[ Сегодня идет свободное скачивание без начисления Download ]


Статистика раздачи
Буду качать: [ 1 ]
Качаю: [ 1 ]
Скачал: [ 7 ]
 
   
 
Top  
 
 
Варкрафт / Warcraft (2016) WEB-DLRip [H.264/720p-LQ] [hand made 60 fps] - Производство: США, Atlas Entertainment, Blizzard Entertainment, Legendary Pictures, Universal Pictures
Жанр: Фэнтези, Боевик, Приключения
Режиссер: Дункан Джонс
Продюсер: Стюарт Фенеган, Алекс Гартнер, Джон Дж. Джашни
Актеры: Трэвис Фиммел, Бен Фостер, Пола Пэттон, Тоби Кеббелл, Роберт Казински, Доминик Купер, Даниэль Ву, Клэнси Браун
Описание:
Веками магия и неприступные стены защищали людей от любых напастей. Но древнее зло, побежденное и забытое тысячелетия назад, пробудилось. В самом сердце королевства открылся темный портал, и раса невиданных существ наводнила земли Азерота. Так начались события, призванные навсегда изменить судьбу этого мира.

Возраст: 12+ (зрителям, достигшим 12 лет)
Рейтинг MPAA: PG-13 (детям до 13 лет просмотр нежелателен)
Дата мировой премьеры: 25 мая 2016
Дата российской премьеры: 26 мая 2016, «UPI» 3D
Продолжительность: 02:03:06
Качество видео: WEB-DLRip
Перевод: Дублированный (iTunes)
Вид субтитров: Отсутствуют
Видео: AVC/H.264, 1280x532 (2.40:1), 4374 kb/s, 59.94 fps
Аудио »1: 48 kHz, AC3 Dolby Digital, 3/2 (L,C,R,l,r) + LFE ch, ~384 kbps (Русский)
Аудио »2: 48 kHz, AC3 Dolby Digital, 2/0 (L,R) + ch, ~192 kbps (Оригинал/Английский)

Mediainfo:

General
Unique ID : 179365876425959346352797155840414148250 (0x86F09C7A4A4FB7E8B123DBC8BF43669A)
Complete name : E:\Video\60 fps\Варкрафт\Варкрафт.2016.WEB-DLRip.720p.60fps.mkv
Format : Matroska
Format version : Version 4 / Version 2
File size : 4.26 GiB
Duration : 2 h 3 min
Overall bit rate : 4 951 kb/s
Movie name : Варкрафт.2016.WEB-DL.[1080p].
Encoded date : UTC 2016-08-05 07:12:50
Writing application : mkvmerge v7.7.0 ('Six Voices') 64bit built on Feb 28 2015 23:39:33
Writing library : libebml v1.3.1 + libmatroska v1.4.2
Video
ID : 1
Format : AVC
Format/Info : Advanced Video Codec
Format profile : High@L4.1
Format settings, CABAC : Yes
Format settings, ReFrames : 5 frames
Codec ID : V_MPEG4/ISO/AVC
Duration : 2 h 3 min
Bit rate : 4 374 kb/s
Width : 1 280 pixels
Height : 532 pixels
Display aspect ratio : 2.40:1
Frame rate mode : Constant
Frame rate : 59.940 (60000/1001) FPS
Color space : YUV
Chroma subsampling : 4:2:0
Bit depth : 8 bits
Scan type : Progressive
Bits/(Pixel*Frame) : 0.107
Stream size : 3.76 GiB (88%)
Title : Rip by izomsk
Writing library : x264 core 148 r2638 7599210
Encoding settings : cabac=1 / ref=5 / deblock=1:-3:-3 / analyse=0x3:0x113 / me=umh / subme=10 / psy=1 / psy_rd=1.00:0.00 / mixed_ref=1 / me_range=32 / chroma_me=1 / trellis=2 / 8x8dct=1 / cqm=0 / deadzone=21,11 / fast_pskip=1 / chroma_qp_offset=-2 / threads=6 / lookahead_threads=1 / sliced_threads=0 / nr=0 / decimate=1 / interlaced=0 / bluray_compat=0 / constrained_intra=0 / bframes=7 / b_pyramid=2 / b_adapt=2 / b_bias=0 / direct=1 / weightb=1 / open_gop=0 / weightp=2 / keyint=1436 / keyint_min=95 / scenecut=40 / intra_refresh=0 / rc_lookahead=40 / rc=crf / mbtree=1 / crf=17.0 / qcomp=0.60 / qpmin=0 / qpmax=69 / qpstep=4 / vbv_maxrate=62500 / vbv_bufsize=78125 / crf_max=0.0 / nal_hrd=none / filler=0 / ip_ratio=1.40 / aq=1:1.00
Language : English
Default : Yes
Forced : No
Audio #1
ID : 2
Format : AC-3
Format/Info : Audio Coding 3
Mode extension : CM (complete main)
Format settings, Endianness : Big
Codec ID : A_AC3
Duration : 2 h 3 min
Bit rate mode : Constant
Bit rate : 384 kb/s
Channel(s) : 6 channels
Channel positions : Front: L C R, Side: L R, LFE
Sampling rate : 48.0 kHz
Frame rate : 31.250 FPS (1536 spf)
Compression mode : Lossy
Stream size : 338 MiB (8%)
Title : iTunes
Language : Russian
Default : Yes
Forced : Yes
Audio #2
ID : 3
Format : AC-3
Format/Info : Audio Coding 3
Mode extension : CM (complete main)
Format settings, Endianness : Big
Codec ID : A_AC3
Duration : 2 h 1 min
Bit rate mode : Constant
Bit rate : 192 kb/s
Channel(s) : 2 channels
Channel positions : Front: L R
Sampling rate : 48.0 kHz
Frame rate : 31.250 FPS (1536 spf)
Compression mode : Lossy
Stream size : 166 MiB (4%)
Title : Original
Language : English
Default : No
Forced : No
Menu
00:00:00.000 : en:глава 1
00:09:27.000 : en:глава 2
00:15:51.000 : en:глава 3
00:22:38.000 : en:глава 4
00:29:18.000 : en:глава 5
00:38:44.000 : en:глава 6
00:46:45.000 : en:глава 7
00:53:04.000 : en:глава 8
00:56:19.000 : en:глава 9
01:02:45.000 : en:глава 10
01:07:50.000 : en:глава 11
01:12:26.000 : en:глава 12
01:17:14.000 : en:глава 13
01:22:47.000 : en:глава 14
01:26:34.000 : en:глава 15
01:32:31.000 : en:глава 16
01:40:23.000 : en:глава 17
01:47:38.000 : en:глава 18
01:51:13.000 : en:глава 19
01:53:59.000 : en:глава 20
Скриншоты:

[Цитировать]



Показать сообщения:    

Текущее время: 09-Дек 10:41

Часовой пояс: UTC + 3


Вы не можете начинать темы
Вы не можете отвечать на сообщения
Вы не можете редактировать свои сообщения
Вы не можете удалять свои сообщения
Вы не можете голосовать в опросах
Вы не можете прикреплять файлы к сообщениям
Вы не можете скачивать файлы

!ВНИМАНИЕ!
Сайт не предоставляет электронные версии произведений, а занимается лишь коллекционированием и каталогизацией ссылок, присылаемых и публикуемых на форуме нашими читателями. Если вы являетесь правообладателем какого-либо представленного материала и не желаете, чтобы ссылка на него находилась в нашем каталоге, свяжитесь с нами, и мы незамедлительно удалим ее. Файлы для обмена на трекере предоставлены пользователями сайта, и администрация не несет ответственности за их содержание. Просьба не заливать файлы, защищенные авторскими правами, а также файлы нелегального содержания!