[ Сегодня идет свободное скачивание без начисления Download ]


Статистика раздачи
Нет
 
   
 
Top  
 
 
Русалочка / Die kleine Meerjungfrau (2013) Информация о фильме
Название: Русалочка
Оригинальное название: Die kleine Meerjungfrau
Год выхода: 2013
Жанр: Сказка, фэнтези, семейный, детский, экранизация
Режиссер: Ирина Попоу
В ролях: Зои Мур, Филипп Данне, Бен Беккер, Мерет Беккер, Кристиан Штейер, Мария Эрих, Клара Флоринда Герст, Франциска Брайте, Ангелика Бёттигер
О фильме:
Классическая история русалочки по имени Ариэль. Она много лет жила в подводном мире вместе со своим отцом и сестрами. Ее жизнелюбивый характер радовал всех, кто находился вокруг. Но однажды она решила посмотреть на то, как живут люди. Поднявшись к морской поверхности, она поняла, что только там может быть абсолютно счастлива, но жить как все люди она не может из-за того, что у нее нет ног. Ариэль обращается за помощью к колдунье, которая дает ей ноги в обмен на ее прекрасный голос. Теперь, став обычной девушкой, Ариэль оказывается на суше, где в это время прогуливается прекрасный принц. Он с первого взгляда влюбляется в прекрасную незнакомку и приводит ее в свой замок, где Ариэль ждет совершенно новая жизнь…
Страна: Германия
Студия: Kinderfilm GmbH, Mitteldeutscher Rundfunk (MDR)
Продолжительность: 00:58:31
Перевод: Профессиональный многоголосый
Файл
Кодек: h.264
Качество: HDTV 1080i
Видео: MPEG-4 AVC, ~ 9532 Кбит/с, 1920x1080, 25.000 кадр/с
Звук:
Русский (AC3, 6 ch, 448 Кбит/с) / Профессиональный многоголосый
Русский (MP2, 2 ch, 192 Кбит/с) / Профессиональный многоголосый
Семпл

О релизе

Автор релиза - Silverok, первоисточник - Кинопоказ HD2

MI

Общее
Идентификатор : 1 (0x1)
Полное имя : D:uTorrentRusalochka.2013.HDTV.1080i.MediaClub.ts
Формат : MPEG-TS
Размер файла : 4,38 Гбайт
Продолжительность : 58 м.
Режим общего битрейта : Переменный
Общий поток : 10,7 Мбит/сек
Видео
Идентификатор : 3031 (0xBD7)
Идентификатор меню : 1234 (0x4D2)
Формат : AVC
Формат/Информация : Advanced Video Codec
Профиль формата : Main@L4
Параметр CABAC формата : Да
Параметр ReFrames формата : 4 кадра
Идентификатор кодека : 27
Продолжительность : 58 м.
Битрейт : 9532 Кбит/сек
Ширина : 1920 пикселей
Высота : 1080 пикселей
Соотношение сторон : 16:9
Частота кадров : 25,000 кадров/сек
Цветовое пространство : YUV
Субдискретизация насыщенности : 4:2:0
Битовая глубина : 8 бит
Тип развёртки : Чересстрочная
Метод сохранения типа развёртки : Раздельные поля
Порядок развёртки : Верхнее поле первое
Бит/(Пиксели*Кадры) : 0.184
Размер потока : 3,90 Гбайт (89%)
Цветовой диапазон : Limited
Основные цвета : BT.709
Характеристики трансфера : BT.709
Коэффициенты матрицы : BT.709
Аудио #1
Идентификатор : 3032 (0xBD8)
Идентификатор меню : 1234 (0x4D2)
Формат : AC-3
Формат/Информация : Audio Coding 3
Расширение режима : CM (complete main)
Параметр Endianness формата : Big
Идентификатор кодека : 6
Продолжительность : 58 м.
Вид битрейта : Постоянный
Битрейт : 448 Кбит/сек
Каналы : 6 каналов
Расположение каналов : Front: L C R, Side: L R, LFE
Частота : 48,0 КГц
Частота кадров : 31,250 кадров/сек (1536 spf)
Метод сжатия : С потерями
Размер потока : 188 Мбайт (4%)
Язык : Russian
Аудио #2
Идентификатор : 3033 (0xBD9)
Идентификатор меню : 1234 (0x4D2)
Формат : MPEG Audio
Версия формата : Version 1
Профиль формата : Layer 2
Идентификатор кодека : 3
Продолжительность : 58 м.
Вид битрейта : Постоянный
Битрейт : 192 Кбит/сек
Каналы : 2 канала
Частота : 48,0 КГц
Метод сжатия : С потерями
Размер потока : 80,4 Мбайт (2%)
Язык : Russian

Скриншоты

[Цитировать]



Показать сообщения:    

Текущее время: 10-Дек 09:58

Часовой пояс: UTC + 3


Вы не можете начинать темы
Вы не можете отвечать на сообщения
Вы не можете редактировать свои сообщения
Вы не можете удалять свои сообщения
Вы не можете голосовать в опросах
Вы не можете прикреплять файлы к сообщениям
Вы не можете скачивать файлы

!ВНИМАНИЕ!
Сайт не предоставляет электронные версии произведений, а занимается лишь коллекционированием и каталогизацией ссылок, присылаемых и публикуемых на форуме нашими читателями. Если вы являетесь правообладателем какого-либо представленного материала и не желаете, чтобы ссылка на него находилась в нашем каталоге, свяжитесь с нами, и мы незамедлительно удалим ее. Файлы для обмена на трекере предоставлены пользователями сайта, и администрация не несет ответственности за их содержание. Просьба не заливать файлы, защищенные авторскими правами, а также файлы нелегального содержания!