[ Сегодня идет свободное скачивание без начисления Download ]


Статистика раздачи
Нет
 
   
 
Top  
 
 
Легенда о волке / Большой босс 2 / Chin Long Chuen Suet (1997) Информация о фильме
Название: Легенда о волке / Большой босс 2
Оригинальное название: Chin Long Chuen Suet
Год выхода: 1997
Жанр: Боевик, боевые искусства
Режиссер: Донни Йен
В ролях: Донни Йен, Карман Ли, Чи Ва Вонг, Бен Лам, Эдмонд Люн, Мэнди Чан, Чин Куб
О фильме:
Член могущественной банды по кличке Волк, спасая невинную девушку, вступает в смертельную схватку с главарем группировки и убивает его.
Теперь его ждет жестокая расправа и лишь владение боевыми искусствами позволяет ему выходить живым из многочисленных схваток с бандитами, направляемыми новым главарем. Он стал легендой: один против всех — настоящий Волк.
Страна: Гонконг
Продолжительность: 01:34:48
Перевод: Авторский одноголосый закадровый (Кашкин)
Файл
Кодек: AVC, x264
Качество: BD-Rip
Видео: 1920x1040 (16:9), 8000 kbps, 23,976 fps
Звук: AC-3, 192 kbps, 48 KHz, 2 channels

mi

General
Unique ID : 231802904590032944980426597676823266430 (0xAE639D925D327B5CAE1CCFBE35DEC47E)
Complete name : X:FILMSГонконгЛегенда о волке (Большой босс 2) [Chin Long Chuen Suet, 1997] 1080p.mkv
Format : Matroska
Format version : Version 2
File size : 5.42 GiB
Duration : 1h 34mn
Overall bit rate : 8 189 Kbps
Encoded date : UTC 2016-08-04 16:36:11
Writing application : mkvmerge v5.2.1 ('A Far Off Place') built on Jan 2 2012 23:21:10
Writing library : libebml v1.2.3 + libmatroska v1.3.0
Video
ID : 1
Format : AVC
Format/Info : Advanced Video Codec
Format profile : [email protected]
Format settings, CABAC : Yes
Format settings, ReFrames : 4 frames
Muxing mode : Header stripping
Codec ID : V_MPEG4/ISO/AVC
Duration : 1h 34mn
Bit rate : 8 000 Kbps
Width : 1 920 pixels
Height : 1 040 pixels
Display aspect ratio : 1.85:1
Frame rate mode : Constant
Frame rate : 23.976 (24000/1001) fps
Color space : YUV
Chroma subsampling : 4:2:0
Bit depth : 8 bits
Scan type : Progressive
Bits/(Pixel*Frame) : 0.167
Stream size : 5.19 GiB (96%)
Title : Legend Of The Wolf (1997)
Writing library : x264 core 120 r2164 da19765
Encoding settings : cabac=1 / ref=3 / deblock=1:0:0 / analyse=0x3:0x113 / me=hex / subme=7 / psy=1 / psy_rd=1.00:0.00 / mixed_ref=1 / me_range=16 / chroma_me=1 / trellis=1 / 8x8dct=1 / cqm=0 / deadzone=21,11 / fast_pskip=1 / chroma_qp_offset=-2 / threads=3 / sliced_threads=0 / nr=0 / decimate=1 / interlaced=0 / bluray_compat=0 / constrained_intra=0 / bframes=3 / b_pyramid=2 / b_adapt=1 / b_bias=0 / direct=1 / weightb=1 / open_gop=0 / weightp=2 / keyint=240 / keyint_min=23 / scenecut=40 / intra_refresh=0 / rc_lookahead=40 / rc=2pass / mbtree=1 / bitrate=8000 / ratetol=1.0 / qcomp=0.60 / qpmin=0 / qpmax=69 / qpstep=4 / cplxblur=20.0 / qblur=0.5 / ip_ratio=1.40 / aq=1:1.00
Language : English
Default : Yes
Forced : No
Audio
ID : 2
Format : AC-3
Format/Info : Audio Coding 3
Mode extension : CM (complete main)
Format settings, Endianness : Big
Muxing mode : Header stripping
Codec ID : A_AC3
Duration : 1h 34mn
Bit rate mode : Constant
Bit rate : 192 Kbps
Channel(s) : 2 channels
Channel positions : Front: L R
Sampling rate : 48.0 KHz
Frame rate : 31.250 fps (1536 spf)
Compression mode : Lossy
Stream size : 130 MiB (2%)
Title : Кашкин
Language : Russian
Default : Yes
Forced : No

Скриншоты

[Цитировать]



Показать сообщения:    

Текущее время: 05-Дек 15:37

Часовой пояс: UTC + 3


Вы не можете начинать темы
Вы не можете отвечать на сообщения
Вы не можете редактировать свои сообщения
Вы не можете удалять свои сообщения
Вы не можете голосовать в опросах
Вы не можете прикреплять файлы к сообщениям
Вы не можете скачивать файлы

!ВНИМАНИЕ!
Сайт не предоставляет электронные версии произведений, а занимается лишь коллекционированием и каталогизацией ссылок, присылаемых и публикуемых на форуме нашими читателями. Если вы являетесь правообладателем какого-либо представленного материала и не желаете, чтобы ссылка на него находилась в нашем каталоге, свяжитесь с нами, и мы незамедлительно удалим ее. Файлы для обмена на трекере предоставлены пользователями сайта, и администрация не несет ответственности за их содержание. Просьба не заливать файлы, защищенные авторскими правами, а также файлы нелегального содержания!