[ Сегодня идет свободное скачивание без начисления Download ]


Статистика раздачи
Нет
 
   
 
Top  
 
 
Грозовые ворота (2006) WEBRip (1-4 серии из 4) - Производство: Россия / Первый канал, к/ст Вертикаль
Жанр: Военный, Драма
Режиссер: Андрей Малюков
Актеры: Михаил Пореченков, Вячеслав Разбегаев, Анатолий Пашинин, Андрей Краско, Иван Жидков, Евгений Потапенко, Михаил Ефремов, Даниил Страхов, Елизавета Боярская, Марина Могилевская, Юрий Цурило, Виктория Толстоганова, Анастасия Цветаева, Борис Щербаков, Екатерина Климова, Александр Лойе, Никита Емшанов, Сахат Дурсунов, Максим Зыков, Марина Яковлева, Раиса Рязанова, Алексей Шевченков, Александр Фисенко, Илья Бледный, Степан Лапшин.
Описание:
Люди на войне. В бою. В разведке. В отступлении. В атаке…Дни и ночи, проведенные в полевой обстановке заставляют задуматься и вспомнить - почему мы здесь? И в памяти каждого выплывают картины из прошлой и такой далекой теперь жизни… У каждого героя своя предыстория. Кто-то открывает для себя мир, кто-то сбегает от любви, кто-то доказывает свою самостоятельность, кто-то - мстит… Такие разные, они оказываются в бою, плечом к плечу: вчерашние школьники и опытные полевые командиры. Фильм раскрывает внутренний мир каждого из них, желания, мечты, боль, надежды…

Возраст: 16+ (зрителям, достигшим 16 лет)
Релиз от: ExKinoRay
Продолжительность: ~00:52:00 серия
Качество видео: WEBRip СЭМПЛ
Видео: Xvid, 720х400, ~1700 Кбит/сек
Аудио: AC3, 192 Кбит/сек,2 канала, CBR

Mediainfo:

Общее
Полное имя : D:\Грозовые ворота\01 серия_Грозовые ворота_rip by_Aleksan55.avi
Формат : AVI
Формат/Информация : Audio Video Interleave
Размер файла : 707 Мбайт
Продолжительность : 52 м.
Общий поток : 1901 Кбит/сек
Программа кодирования : VirtualDubMod 1.5.10.3 | [url=http://www.virtualdub-fr.org]www.virtualdub-fr.org[/url] || (build 2550/release)
Библиотека кодирования : VirtualDubMod build 2550/release
Видео
Идентификатор : 0
Формат : MPEG-4 Visual
Профиль формата : Advanced Simple@L5
Параметр BVOP формата : 1
Параметр QPel формата : Да
Параметр GMC формата : Без точки перехода
Параметр матрицы формата : Default (H.263)
Идентификатор кодека : XVID
Идентификатор кодека/Подсказка : XviD
Продолжительность : 52 м.
Битрейт : 1700 Кбит/сек
Ширина : 720 пикселей
Высота : 400 пикселей
Соотношение сторон : 16:9
Частота кадров : 25,000 кадров/сек
Цветовое пространство : YUV
Субдискретизация насыщенности : 4:2:0
Битовая глубина : 8 бит
Тип развёртки : Прогрессивная
Метод сжатия : С потерями
Бит/(Пиксели*Кадры) : 0.236
Размер потока : 632 Мбайт (89%)
Библиотека кодирования : XviD 1.2.1 (UTC 2008-12-04)
Аудио
Идентификатор : 1
Формат : AC-3
Формат/Информация : Audio Coding 3
Расширение режима : CM (complete main)
Параметр Endianness формата : Big
Идентификатор кодека : 2000
Продолжительность : 52 м.
Вид битрейта : Постоянный
Битрейт : 192 Кбит/сек
Каналы : 2 канала
Расположение каналов : Front: L R
Частота : 44,1 КГц
Метод сжатия : С потерями
Размер потока : 71,4 Мбайт (10%)
Выравнивание : Разделение по промежуткам
Продолжительность промежутка : 40 мс. (1,00 видеокадр)
Время предзагрузки промежутка : 500 мс.
Скриншоты:

[Цитировать]



Показать сообщения:    

Текущее время: 10-Дек 00:15

Часовой пояс: UTC + 3


Вы не можете начинать темы
Вы не можете отвечать на сообщения
Вы не можете редактировать свои сообщения
Вы не можете удалять свои сообщения
Вы не можете голосовать в опросах
Вы не можете прикреплять файлы к сообщениям
Вы не можете скачивать файлы

!ВНИМАНИЕ!
Сайт не предоставляет электронные версии произведений, а занимается лишь коллекционированием и каталогизацией ссылок, присылаемых и публикуемых на форуме нашими читателями. Если вы являетесь правообладателем какого-либо представленного материала и не желаете, чтобы ссылка на него находилась в нашем каталоге, свяжитесь с нами, и мы незамедлительно удалим ее. Файлы для обмена на трекере предоставлены пользователями сайта, и администрация не несет ответственности за их содержание. Просьба не заливать файлы, защищенные авторскими правами, а также файлы нелегального содержания!