[ Сегодня идет свободное скачивание без начисления Download ]


Статистика раздачи
Скачал: [ 1 ]
 
   
 
Top  
 
 
«Коричневые» в цвете: Частные цветные фильмы из Третьего Рейха (2 части из 2) / Die Braunen in Farbe: Private Farbfilme aus dem Dritten Reich (2007, 2010) DVDRip [DE / RU Sub] - Телекомпания: Германия, Polar Film & Medien GmbH
Жанр: Документальный, война, кинохроника, история
Описание:
Цветные фильмы в период до 1945 года являются одними из самых интересных источников изучения недавней германской истории... потому что они встречаются крайне редко, и на их поиски часто уходят годы, до тех пор пока не будет собрано достаточно материала для создания нового документального фильма. И поверьте, это стоит затраченного времени и сил: ведь частные цветные фильмы позволяют нам как бы заглянуть за кулисы времени, чтобы с документальной точностью воссоздать прошлое, которое сегодня нам кажется таким исключительным. Именно эта историческая точка зрения нам крайне важна ещё и потому, поскольку мы отчётливо понимаем, что Третий Рейх был весьма многолик: любовь и боль разлуки, дружба и устремления, террор и страх, победы и поражение...
Релиз от: alf62
Большое спасибо:
- koster37 и garageforsale за предоставленные субтитры;
- warlock24 за предоставленный источник DVD
Продолжительность: 01:07:13 + 01:18:31
Качество видео: DVDRip
Перевод: Отсутствует
Язык: немецкий
Субтитры: Русские (отдельным файлом) [перевод koster37, garageforsale]
Видео: Xvid, 704x528, ~2000 Kbps
Аудио: AC3, 2 ch, 192 Kbps, CBR

Список выпусков/серий

1. Мирные годы с 1933-1939 / Die Friedensjahre 1933-1939
2. Военные годы 1939-1945 / Die Kriegsjahre 1939-1945

Mediainfo:

Коричневые.в.цвете.(1.часть.из.2).Мирные.годы.2007.XviD.DVDRip.alf62.avi
Формат : AVI
Формат/Информация : Audio Video Interleave
Размер файла : 1,03 Гбайт
Продолжительность : 1 ч. 7 м.
Общий поток : 2200 Кбит/сек
Программа кодирования : VirtualDubMod 1.5.10.3 | www.virtualdub-fr.org || (build 2550/release)
Библиотека кодирования : VirtualDubMod build 2550/release
Видео
Идентификатор : 0
Формат : MPEG-4 Visual
Профиль формата : Advanced Simple@L5
Параметр BVOP формата : 1
Параметр QPel формата : Нет
Параметр GMC формата : Без точки перехода
Параметр матрицы формата : Default (MPEG)
Идентификатор кодека : XVID
Идентификатор кодека/Подсказка : XviD
Продолжительность : 1 ч. 7 м.
Битрейт : 1998 Кбит/сек
Ширина : 704 пикселя
Высота : 528 пикселей
Соотношение сторон : 4:3
Частота кадров : 25,000 кадров/сек
Цветовое пространство : YUV
Субдискретизация насыщенности : 4:2:0
Битовая глубина : 8 бит
Тип развёртки : Прогрессивная
Метод сжатия : С потерями
Бит/(Пиксели*Кадры) : 0.215
Размер потока : 961 Мбайт (91%)
Библиотека кодирования : XviD 73
Аудио
Идентификатор : 1
Формат : AC-3
Формат/Информация : Audio Coding 3
Расширение режима : CM (complete main)
Параметр Endianness формата : Big
Идентификатор кодека : 2000
Продолжительность : 1 ч. 7 м.
Вид битрейта : Постоянный
Битрейт : 192 Кбит/сек
Каналы : 2 канала
Расположение каналов : Front: L R
Частота : 48,0 КГц
Битовая глубина : 16 бит
Метод сжатия : С потерями
Размер потока : 92,3 Мбайт (9%)
Выравнивание : Разделение по промежуткам
Продолжительность промежутка : 40 мс. (1,00 видеокадр)
Время предзагрузки промежутка : 500 мс.
Скриншоты:

Дополнительные скриншоты:



[Цитировать]



Показать сообщения:    

Текущее время: 08-Дек 14:49

Часовой пояс: UTC + 3


Вы не можете начинать темы
Вы не можете отвечать на сообщения
Вы не можете редактировать свои сообщения
Вы не можете удалять свои сообщения
Вы не можете голосовать в опросах
Вы не можете прикреплять файлы к сообщениям
Вы не можете скачивать файлы

!ВНИМАНИЕ!
Сайт не предоставляет электронные версии произведений, а занимается лишь коллекционированием и каталогизацией ссылок, присылаемых и публикуемых на форуме нашими читателями. Если вы являетесь правообладателем какого-либо представленного материала и не желаете, чтобы ссылка на него находилась в нашем каталоге, свяжитесь с нами, и мы незамедлительно удалим ее. Файлы для обмена на трекере предоставлены пользователями сайта, и администрация не несет ответственности за их содержание. Просьба не заливать файлы, защищенные авторскими правами, а также файлы нелегального содержания!