[ Сегодня идет свободное скачивание без начисления Download ]


Статистика раздачи
Нет
 
   
 
Top  
 
 
На крючке / Eagle Eye«Хочешь жить - делай что говорят» Год выпуска: 2008
Страна: США, Германия
Жанр: Триллер, Фантастика, Боевик
Продолжительность: 01:57:35
Перевод: Дубляж (Русский) + Дубляж (Украинский)
Режиссер: Ди Джей Карузо
Продюссер: Патрик Краули, Алекс Куртцман, Роберто Орси
Сценарий: Дэн МакДермотт, Джон Гленн, Трэвис Райт
Бюджет: $80 000 000
Премьера в мире: 16 сентября 2008
В ролях: Шиа ЛаБеф, Мишель Монахэн, Розарио Доусон, Майкл Чиклис, Энтони Маки, Этан Эмбри, Билли Боб Торнтон, Энтони Азизи, Камерон Бойс, Линн Коэн, Билл Смитрович, Чарльз Кэрролл, Уильям Сэдлер, Дебора Стрэндж, Dariush Kashani, Шон Кинни, Боб Моррисей, Дж. Патрик МакКормак, Лоренцо Эдуардо, Мэдилин Свитен, Жорже Палло
Описание: Юный бездельник живет беззаботной жизнью, в отличие от своего брата-близнеца, стремящегося добиться успеха во всех сферах жизни, пока… тот не погибает при загадочных обстоятельствах. В то же время у матери-одиночки Рэйчел пропадает ребенок, и, вскоре, незнакомцы обнаруживают, что их подставили и выставили террористами. Насильно внедренные в группировку, планирующую серию убийств, они вынуждены вместе искать пути к спасению своей жизни…
[imdb]tt1059786[/imdb] [kp]387477[/kp]
Качество: BDRip
Формат: AVI
Видео кодек: XviD
Аудио кодек: AC3
Видео: 720x304 (2,35:1), 23.976 fps, 1368 kbps, 0.261 bit/pixel
Аудио#1: 48 kHz, AC3, 2/0 (L,R) ch, 192.00 kbps (Русский)
Аудио#2: 48 kHz, AC3, 2/0 (L,R) ch, 192.00 kbps (Украинский)

media info

Формат : AVI
Формат/Информация : Audio Video Interleave
Размер файла : 1,45 Гбайт
Продолжительность : 1 ч. 57 м.
Общий поток : 1766 Кбит/сек
Программа кодирования : VirtualDubModRus 1.5.10.2 (build 2542/release)
Библиотека кодирования : VirtualDubMod build 2542/release
Правообладатель : rip by maygli
Видео
Идентификатор : 0
Формат : MPEG-4 Visual
Профиль формата : Advanced Simple@L5
Параметр BVOP формата : 3
Параметр QPel формата : Да
Параметр GMC формата : 3 точки перехода
Параметр матрицы формата : Default (H.263)
Идентификатор кодека : XVID
Идентификатор кодека/Подсказка : XviD
Продолжительность : 1 ч. 57 м.
Битрейт : 1368 Кбит/сек
Ширина : 720 пикселей
Высота : 304 пикселя
Соотношение сторон : 2,35:1
Частота кадров : 23,976 кадра/сек
Цветовое пространство : YUV
Субдискретизация насыщенности : 4:2:0
Битовая глубина : 8 бит
Тип развёртки : Прогрессивная
Метод сжатия : С потерями
Бит/(Пиксели*Кадры) : 0.261
Размер потока : 1,12 Гбайт (77%)
Библиотека кодирования : XviD 1.2.1 (UTC 2008-12-04)
Аудио #1
Идентификатор : 1
Формат : AC-3
Формат/Информация : Audio Coding 3
Расширение режима : CM (complete main)
Параметр Endianness формата : Big
Идентификатор кодека : 2000
Продолжительность : 1 ч. 57 м.
Вид битрейта : Постоянный
Битрейт : 192 Кбит/сек
Каналы : 2 канала
Расположение каналов : Front: L R
Частота : 48,0 КГц
Битовая глубина : 16 бит
Метод сжатия : С потерями
Задержка видео : 1 с. 344 мс.
Размер потока : 161 Мбайт (11%)
Выравнивание : Разделение по промежуткам
Продолжительность промежутка : 42 мс. (1,00 видеокадр)
Время предзагрузки промежутка : 500 мс.
Аудио #2
Идентификатор : 2
Формат : AC-3
Формат/Информация : Audio Coding 3
Расширение режима : CM (complete main)
Параметр Endianness формата : Big
Идентификатор кодека : 2000
Продолжительность : 1 ч. 57 м.
Вид битрейта : Постоянный
Битрейт : 192 Кбит/сек
Каналы : 2 канала
Расположение каналов : Front: L R
Частота : 48,0 КГц
Битовая глубина : 16 бит
Метод сжатия : С потерями
Размер потока : 161 Мбайт (11%)
Выравнивание : Разделение по промежуткам
Продолжительность промежутка : 42 мс. (1,00 видеокадр)
Время предзагрузки промежутка : 500 мс.

[Цитировать]

akcent7, Я вам всё исправил! Henkok На будущее, такие мелкие недочёты мог бы и сам исправить!

[Цитировать]



Показать сообщения:    

Текущее время: 02-Дек 22:56

Часовой пояс: UTC + 3


Вы не можете начинать темы
Вы не можете отвечать на сообщения
Вы не можете редактировать свои сообщения
Вы не можете удалять свои сообщения
Вы не можете голосовать в опросах
Вы не можете прикреплять файлы к сообщениям
Вы не можете скачивать файлы

!ВНИМАНИЕ!
Сайт не предоставляет электронные версии произведений, а занимается лишь коллекционированием и каталогизацией ссылок, присылаемых и публикуемых на форуме нашими читателями. Если вы являетесь правообладателем какого-либо представленного материала и не желаете, чтобы ссылка на него находилась в нашем каталоге, свяжитесь с нами, и мы незамедлительно удалим ее. Файлы для обмена на трекере предоставлены пользователями сайта, и администрация не несет ответственности за их содержание. Просьба не заливать файлы, защищенные авторскими правами, а также файлы нелегального содержания!