[ Сегодня идет свободное скачивание без начисления Download ]


Статистика раздачи
Нет
 
   
 
Top  
 
 
-Информация о фильме
Название: Дорожные игры
Оригинальное название: Road Games
Год выхода: 2015
Жанр: триллер
Режиссер: Эбнер Пастолл
В ролях: Эндрю Симпсон, Жозефин де ла Буме, Фредерик Пьеро, Барбара Крэмптон, Федор Аткин, Пьер Буланжер, Сузанна Каппельяро, Эдвард Хогг, Clémentine Alexandre, Erwan Hiernard-О фильме:
“Дорожные игры” – не совсем типичный фильм ужасов об опасной привычке ловить попутки на пустынных безлюдных дорогах. Молодой американец Джек вынужден ловить попутки во Франции. Местная девушка Вероника объясняет парню, что в этих краях орудует серийный убийца, жертвами которого уже стали десятки людей, поэтому любой водитель считает благоразумным не брать попутчиков.Наконец, один француз соглашается их подвести и даже приглашает к себе домой. Не зная французского, Джек оказываются вовлечен в череду ужасных событий устроенных хозяевами-лягушатниками.- -Страна: Великобритания, Франция
Студия: February Films, Superbe Films, Trigger Films
Продолжительность: 01:34:53
Перевод: Любительский (многоголосый, закадровый) | Студия Пиратского Дубляжа
Субтитры: Нет-ПРИМЕЧАНИЕ: ПРИСУТСТВУЕТ РЕКЛАМА!-СЭМПЛ-Файл
Кодек: XviD
Качество: HDRip
Видео: 720x304 (2.37:1), 23.976 fps, XviD build 73 ~959 kbps avg, 0.18 bit/pixel
Звук: 48 kHz, MPEG Layer 3, 2 ch, ~128.00 kbps avg-

Тех. инфо

General
Complete name : Road.games.2015.L.HDRip.Portablius.avi
Format : AVI
Format/Info : Audio Video Interleave
File size : 744 MiB
Duration : 1h 34mn
Overall bit rate : 1 097 Kbps
Writing application : VirtualDubMod 1.5.10.3 | www.virtualdub-fr.org || (build 2550/release)
Writing library : VirtualDubMod build 2550/release
Video
ID : 0
Format : MPEG-4 Visual
Format profile : Advanced [email protected]
Format settings, BVOP : 1
Format settings, QPel : No
Format settings, GMC : No warppoints
Format settings, Matrix : Custom
Codec ID : XVID
Codec ID/Hint : XviD
Duration : 1h 34mn
Bit rate : 959 Kbps
Width : 720 pixels
Height : 304 pixels
Display aspect ratio : 2.35:1
Frame rate : 23.976 fps
Color space : YUV
Chroma subsampling : 4:2:0
Bit depth : 8 bits
Scan type : Progressive
Compression mode : Lossy
Bits/(Pixel*Frame) : 0.183
Stream size : 651 MiB (87%)
Writing library : XviD 73
Audio
ID : 1
Format : MPEG Audio
Format version : Version 1
Format profile : Layer 3
Codec ID : 55
Codec ID/Hint : MP3
Duration : 1h 34mn
Bit rate mode : Constant
Bit rate : 128 Kbps
Channel(s) : 2 channels
Sampling rate : 48.0 KHz
Compression mode : Lossy
Stream size : 86.9 MiB (12%)
Alignment : Aligned on interleaves
Interleave, duration : 42 ms (1.00 video frame)
Interleave, preload duration : 504 ms
Writing library : LAME3.99r
Encoding settings : -m s -V 4 -q 2 -lowpass 17 -b 128

Скриншоты

[Цитировать]



Показать сообщения:    

Текущее время: 06-Дек 03:54

Часовой пояс: UTC + 3


Вы не можете начинать темы
Вы не можете отвечать на сообщения
Вы не можете редактировать свои сообщения
Вы не можете удалять свои сообщения
Вы не можете голосовать в опросах
Вы не можете прикреплять файлы к сообщениям
Вы не можете скачивать файлы

!ВНИМАНИЕ!
Сайт не предоставляет электронные версии произведений, а занимается лишь коллекционированием и каталогизацией ссылок, присылаемых и публикуемых на форуме нашими читателями. Если вы являетесь правообладателем какого-либо представленного материала и не желаете, чтобы ссылка на него находилась в нашем каталоге, свяжитесь с нами, и мы незамедлительно удалим ее. Файлы для обмена на трекере предоставлены пользователями сайта, и администрация не несет ответственности за их содержание. Просьба не заливать файлы, защищенные авторскими правами, а также файлы нелегального содержания!