[ Сегодня идет свободное скачивание без начисления Download ]


Статистика раздачи
Нет
 
   
 
Top  
 
 
Сказки юга / Southland Tales (2006) BDRip 1080 Информация о фильме
Название: Сказки юга
Оригинальное название: Southland Tales
Год выхода: 2006
Жанр: фантастика, фэнтези, триллер, драма, комедия
Режиссер: Ричард Келли
В ролях: Сара Мишель Геллар, Дуэйн Джонсон, Джанин Гарофало, Кристофер Ламберт, Джастин Тимберлэйк, Кевин Смит, Мэнди Мур, Холмс Осборн, Миранда Ричардсон, Шонн Уильям Скотт
О фильме: В 2008 году, после Третьей мировой войны, Лос-Анджелес находится на пороге социальной, экономической и природной катастрофы. Звезда боевиков, параноидальный шизофреник Боксер Сантариос, страдает амнезией и периодически видит будущее. Его жизнь переплетается с жизнями Кристы Нау, звездой кино для взрослых, которая разрабатывает свое собственное телевизионное реалити-шоу…

Выпущено: Cherry Road Films
Продолжительность: 02:24:33
Перевод: Профессиональный (многоголосый, закадровый) (Universal) + Авторский (Ю.Сербин)
Файл
Кодек: x264
Качество: BDRip (источник: Blu-ray Disc)
Видео: 1920x800 (2,40:1), 23.976 fps, 6210 kbps
Аудио #1: 48 kHz, AC-3, 6 ch, 384 kbps (MVO Universal)
Аудио #2: 48 kHz, AC-3, 6 ch, 640 kbps (AVO Ю.Сербин)
Аудио #3: 48 kHz, AC-3, 6 ch, 640 kbps (Оригинал)
Субтитры: Русские, Английские
Скачать: сэмпл
Скриншоты

MI

Общее
Уникальный идентификатор : 229642816795724637839059186314418831287 (0xACC399055C1237CA90BA3208075BBFB7)
Полное имя : Southland.Tales.2006.BDRip.1080p.Rus.Eng.mkv
Формат : Matroska
Версия формата : Version 2
Размер файла : 7,95 Гбайт
Продолжительность : 2 ч. 24 м.
Общий поток : 7874 Кбит/сек
Название фильма : Сказки юга / Southland Tales (2006)
Дата кодирования : UTC 2011-12-08 15:57:53
Программа кодирования : mkvmerge v4.0.0 ('The Stars were mine') сборка от Jun 6 2010 16:18:42
Библиотека кодирования : libebml v1.0.0 + libmatroska v1.0.0
Видео
Идентификатор : 1
Формат : AVC
Формат/Информация : Advanced Video Codec
Профиль формата : [email protected]
Параметр CABAC формата : Да
Параметр ReFrames формата : 5 кадров
Идентификатор кодека : V_MPEG4/ISO/AVC
Продолжительность : 2 ч. 24 м.
Битрейт : 6210 Кбит/сек
Ширина : 1920 пикселей
Высота : 800 пикселей
Соотношение сторон : 2,40:1
Частота кадров : 23,976 кадра/сек
Цветовое пространство : YUV
Субдискретизация насыщенности : 4:2:0
Битовая глубина : 8 бит
Тип развёртки : Прогрессивная
Бит/(Пиксели*Кадры) : 0.169
Размер потока : 6,11 Гбайт (77%)
Заголовок : Release by AlexKa
Библиотека кодирования : x264 core 120 r2120 0c7dab9
Настройки программы : cabac=1 / ref=5 / deblock=1:-3:-3 / analyse=0x3:0x133 / me=umh / subme=10 / psy=1 / psy_rd=1.00:0.10 / mixed_ref=1 / me_range=32 / chroma_me=1 / trellis=2 / 8x8dct=1 / cqm=0 / deadzone=21,11 / fast_pskip=0 / chroma_qp_offset=-3 / threads=12 / sliced_threads=0 / nr=0 / decimate=0 / interlaced=0 / bluray_compat=0 / constrained_intra=0 / bframes=5 / b_pyramid=2 / b_adapt=2 / b_bias=0 / direct=3 / weightb=1 / open_gop=0 / weightp=2 / keyint=240 / keyint_min=24 / scenecut=40 / intra_refresh=0 / rc_lookahead=60 / rc=2pass / mbtree=1 / bitrate=6210 / ratetol=1.0 / qcomp=0.60 / qpmin=0 / qpmax=69 / qpstep=4 / cplxblur=20.0 / qblur=0.5 / ip_ratio=1.40 / aq=1:1.00
Язык : English
Аудио #1
Идентификатор : 2
Формат : AC-3
Формат/Информация : Audio Coding 3
Расширение режима : CM (complete main)
Идентификатор кодека : A_AC3
Продолжительность : 2 ч. 24 м.
Вид битрейта : Постоянный
Битрейт : 384 Кбит/сек
Каналы : 6 каналов
Расположение каналов : Front: L C R, Side: L R, LFE
Частота : 48,0 КГц
Битовая глубина : 16 бит
Метод сжатия : С потерями
Размер потока : 397 Мбайт (5%)
Заголовок : MVO лицензия Universal
Язык : Russian
Аудио #2
Идентификатор : 3
Формат : AC-3
Формат/Информация : Audio Coding 3
Расширение режима : CM (complete main)
Идентификатор кодека : A_AC3
Продолжительность : 2 ч. 24 м.
Вид битрейта : Постоянный
Битрейт : 640 Кбит/сек
Каналы : 6 каналов
Расположение каналов : Front: L C R, Side: L R, LFE
Частота : 48,0 КГц
Битовая глубина : 16 бит
Метод сжатия : С потерями
Размер потока : 662 Мбайт (8%)
Заголовок : AVO Ю.Сербин
Язык : Russian
Аудио #3
Идентификатор : 4
Формат : AC-3
Формат/Информация : Audio Coding 3
Расширение режима : CM (complete main)
Идентификатор кодека : A_AC3
Продолжительность : 2 ч. 24 м.
Вид битрейта : Постоянный
Битрейт : 640 Кбит/сек
Каналы : 6 каналов
Расположение каналов : Front: L C R, Side: L R, LFE
Частота : 48,0 КГц
Битовая глубина : 16 бит
Метод сжатия : С потерями
Размер потока : 662 Мбайт (8%)
Заголовок : Оригинал
Язык : English
Текст #1
Идентификатор : 5
Формат : UTF-8
Идентификатор кодека : S_TEXT/UTF8
Идентификатор кодека/Информация : UTF-8 Plain Text
Заголовок : Rus
Язык : Russian
Текст #2
Идентификатор : 6
Формат : UTF-8
Идентификатор кодека : S_TEXT/UTF8
Идентификатор кодека/Информация : UTF-8 Plain Text
Заголовок : Eng SDH
Язык : English
Меню
00:00:00.000 : :Chapter 01
00:04:56.790 : :Chapter 02
00:11:18.459 : :Chapter 03
00:16:19.789 : :Chapter 04
00:22:44.478 : :Chapter 05
00:27:40.623 : :Chapter 06
00:35:03.770 : :Chapter 07
00:39:29.707 : :Chapter 08
00:46:25.789 : :Chapter 09
00:52:34.854 : :Chapter 10
00:59:43.407 : :Chapter 11
01:06:19.653 : :Chapter 12
01:12:38.097 : :Chapter 13
01:17:50.939 : :Chapter 14
01:24:36.561 : :Chapter 15
01:29:59.767 : :Chapter 16
01:38:26.586 : :Chapter 17
01:43:07.012 : :Chapter 18
01:50:38.546 : :Chapter 19
01:55:47.151 : :Chapter 20
02:02:07.802 : :Chapter 21
02:06:25.330 : :Chapter 22
02:11:45.391 : :Chapter 23
02:16:19.690 : :Chapter 24

[Цитировать]



Показать сообщения:    

Текущее время: 04-Дек 19:14

Часовой пояс: UTC + 3


Вы не можете начинать темы
Вы не можете отвечать на сообщения
Вы не можете редактировать свои сообщения
Вы не можете удалять свои сообщения
Вы не можете голосовать в опросах
Вы не можете прикреплять файлы к сообщениям
Вы не можете скачивать файлы

!ВНИМАНИЕ!
Сайт не предоставляет электронные версии произведений, а занимается лишь коллекционированием и каталогизацией ссылок, присылаемых и публикуемых на форуме нашими читателями. Если вы являетесь правообладателем какого-либо представленного материала и не желаете, чтобы ссылка на него находилась в нашем каталоге, свяжитесь с нами, и мы незамедлительно удалим ее. Файлы для обмена на трекере предоставлены пользователями сайта, и администрация не несет ответственности за их содержание. Просьба не заливать файлы, защищенные авторскими правами, а также файлы нелегального содержания!