[ Сегодня идет свободное скачивание без начисления Download ]


Статистика раздачи
Нет
 
   
 
Top  
 
 
Дурман / Weeds [S08] (2012) BDRip 1080p Название: Дурман
Оригинальное название: Weeds
Год выхода: 2005
Страна: США
Студия: Lions Gate Television, Tilted Productions, Weeds Productions
Продолжительность: 11 x ~ 28:00, 01 x 57:06
Жанр: драма, комедия, криминал, ...
Режиссер: Крейг Зиск, Майкл Трим, Скотт Эллис, ...
В ролях: Мэри-Луиз Паркер, Хантер Пэрриш, Александр Гулд, Кевин Нилон, Джастин Кирк, Элизабет Перкинс, Элли Грант, Энди Милдер, Тони Патано, Романи Малко, Демиан Бишир, Энрике Кастильо, Молик Панчоли, Индиго, Гильермо Диас, Рени Виктор, Джек Стелин, Мартин Донован, Бекки Тая, Мэттью Модайн, Шошанна Штерн, Пейдж Кеннеди, Фацо-Фасано, Брюс Нозик, Майкл Харни, ...
Перевод:
- Профессиональный (многоголосный, закадровый) Fox Life
- Любительский (одноголосый, закадровый) Jimmy.J
- Любительский (одноголосый, закадровый) Projektor Show
- Субтитры
О фильме: Нэнси вдова с двумя весьма оригинальными детьми. Старший, Сайлас, мальчик умный и интересный, с постоянными проблемами на любовном фронте, младший, Шейн — это вообще отдельная песня, за мамой он ходит постоянно и просит дать ему антидепрессанты, причем в больших количествах.
Нэнси не нашла никакого другого способа прокормить семью, как начать торговать марихуаной, которую ей подбрасывает семейка афроамериканцев, где всем заправляет Хейлия, а помогает весьма неравнодушный к Нэнси парень Конрад.
У Нэнси начали отовариваться все ее соседи — адвокаты, финансисты и прочие личности. В общем, можете себе представить эту картину, здорово приправленную черным юмором, замечательными комедийными вставками и трагикомическими поворотами.…

Кодек: x264
Качество: BDRip 1080p
Видео: 1920x1080 , ~9500 kbps, 23,976 fps
Аудио #1: AC-3, 2 ch, 192 kbps (Rus) - MVO Fox Life
Аудио #2: AC-3, 6 ch, 384 kbps (Rus) - VO Jimmy.J
Аудио #3: AC-3, 6 ch, 384 kbps (Rus) - VO Projektor Show
Аудио #4: DTS, 6 ch, 1509 kbps (Eng)
Субтитры: Русские, Английские

MediaInfo

Общее
Уникальный идентификатор : 242014874062299007533396468984157004184 (0xB6125E8A1364579EB52CB09B19B76198)
Полное имя : Weeds E01 S08 2012 BDRip 1080p FoxLife Jimmy.J ProjektorShow.mkv
Формат : Matroska
Версия формата : Version 2
Размер файла : 2,36 Гбайт
Продолжительность : 26 м.
Общий поток : 12,7 Мбит/сек
Дата кодирования : UTC 2016-08-07 19:19:07
Программа кодирования : mkvmerge v4.0.0 ('The Stars were mine') сборка от Jun 6 2010 16:18:42
Библиотека кодирования : libebml v1.0.0 + libmatroska v1.0.0
Видео
Идентификатор : 1
Формат : AVC
Формат/Информация : Advanced Video Codec
Профиль формата : High@L4.1
Параметр CABAC формата : Да
Параметр ReFrames формата : 4 кадра
Идентификатор кодека : V_MPEG4/ISO/AVC
Продолжительность : 26 м.
Битрейт : 10,2 Мбит/сек
Ширина : 1920 пикселей
Высота : 1080 пикселей
Соотношение сторон : 16:9
Режим частоты кадров : Постоянный
Частота кадров : 23,976 (24000/1001) кадра/сек
Цветовое пространство : YUV
Субдискретизация насыщенности : 4:2:0
Битовая глубина : 8 бит
Тип развёртки : Прогрессивная
Бит/(Пиксели*Кадры) : 0.205
Размер потока : 1,85 Гбайт (78%)
Библиотека кодирования : x264 core 129 r2245 bc13772
Настройки программы : cabac=1 / ref=4 / deblock=1:-1:-1 / analyse=0x3:0x113 / me=umh / subme=7 / psy=1 / psy_rd=1.00:0.00 / mixed_ref=1 / me_range=16 / chroma_me=1 / trellis=1 / 8x8dct=1 / cqm=0 / deadzone=21,11 / fast_pskip=1 / chroma_qp_offset=-2 / threads=12 / lookahead_threads=2 / sliced_threads=0 / nr=0 / decimate=1 / interlaced=0 / bluray_compat=0 / constrained_intra=0 / bframes=3 / b_pyramid=2 / b_adapt=2 / b_bias=0 / direct=3 / weightb=1 / open_gop=0 / weightp=2 / keyint=250 / keyint_min=23 / scenecut=40 / intra_refresh=0 / rc_lookahead=40 / rc=2pass / mbtree=1 / bitrate=10182 / ratetol=1.0 / qcomp=0.60 / qpmin=0 / qpmax=69 / qpstep=4 / cplxblur=20.0 / qblur=0.5 / vbv_maxrate=50000 / vbv_bufsize=50000 / nal_hrd=none / ip_ratio=1.40 / aq=1:1.00
Язык : English
Default : Нет
Forced : Нет
Аудио #1
Идентификатор : 2
Формат : AC-3
Формат/Информация : Audio Coding 3
Расширение режима : CM (complete main)
Параметр Endianness формата : Big
Идентификатор кодека : A_AC3
Продолжительность : 26 м.
Вид битрейта : Постоянный
Битрейт : 192 Кбит/сек
Каналы : 2 канала
Расположение каналов : Front: L R
Частота : 48,0 КГц
Частота кадров : 31,250 кадров/сек (1536 spf)
Метод сжатия : С потерями
Размер потока : 36,6 Мбайт (2%)
Заголовок : Fox Life
Язык : Russian
Default : Нет
Forced : Нет
Аудио #2
Идентификатор : 3
Формат : AC-3
Формат/Информация : Audio Coding 3
Расширение режима : CM (complete main)
Параметр Endianness формата : Big
Идентификатор кодека : A_AC3
Продолжительность : 26 м.
Вид битрейта : Постоянный
Битрейт : 384 Кбит/сек
Каналы : 6 каналов
Расположение каналов : Front: L C R, Side: L R, LFE
Частота : 48,0 КГц
Частота кадров : 31,250 кадров/сек (1536 spf)
Метод сжатия : С потерями
Размер потока : 73,2 Мбайт (3%)
Заголовок : Jimmy.J
Язык : Russian
Default : Нет
Forced : Нет
Аудио #3
Идентификатор : 4
Формат : AC-3
Формат/Информация : Audio Coding 3
Расширение режима : CM (complete main)
Параметр Endianness формата : Big
Идентификатор кодека : A_AC3
Продолжительность : 26 м.
Вид битрейта : Постоянный
Битрейт : 384 Кбит/сек
Каналы : 6 каналов
Расположение каналов : Front: L C R, Side: L R, LFE
Частота : 48,0 КГц
Частота кадров : 31,250 кадров/сек (1536 spf)
Метод сжатия : С потерями
Размер потока : 73,2 Мбайт (3%)
Заголовок : Projektor Show
Язык : Russian
Default : Нет
Forced : Нет
Аудио #4
Идентификатор : 5
Формат : DTS
Формат/Информация : Digital Theater Systems
Режим : 16
Параметр Endianness формата : Big
Идентификатор кодека : A_DTS
Продолжительность : 26 м.
Вид битрейта : Постоянный
Битрейт : 1509 Кбит/сек
Каналы : 6 каналов
Расположение каналов : Front: L C R, Side: L R, LFE
Частота : 48,0 КГц
Частота кадров : 93,750 кадра/сек (512 spf)
Битовая глубина : 24 бит
Метод сжатия : С потерями
Размер потока : 288 Мбайт (12%)
Язык : English
Default : Нет
Forced : Нет
Текст #1
Идентификатор : 6
Формат : UTF-8
Идентификатор кодека : S_TEXT/UTF8
Идентификатор кодека/Информация : UTF-8 Plain Text
Язык : Russian
Default : Нет
Forced : Нет
Текст #2
Идентификатор : 7
Формат : UTF-8
Идентификатор кодека : S_TEXT/UTF8
Идентификатор кодека/Информация : UTF-8 Plain Text
Язык : English
Default : Нет
Forced : Нет

Скриншоты


[Цитировать]



Показать сообщения:    

Текущее время: 08-Дек 11:01

Часовой пояс: UTC + 3


Вы не можете начинать темы
Вы не можете отвечать на сообщения
Вы не можете редактировать свои сообщения
Вы не можете удалять свои сообщения
Вы не можете голосовать в опросах
Вы не можете прикреплять файлы к сообщениям
Вы не можете скачивать файлы

!ВНИМАНИЕ!
Сайт не предоставляет электронные версии произведений, а занимается лишь коллекционированием и каталогизацией ссылок, присылаемых и публикуемых на форуме нашими читателями. Если вы являетесь правообладателем какого-либо представленного материала и не желаете, чтобы ссылка на него находилась в нашем каталоге, свяжитесь с нами, и мы незамедлительно удалим ее. Файлы для обмена на трекере предоставлены пользователями сайта, и администрация не несет ответственности за их содержание. Просьба не заливать файлы, защищенные авторскими правами, а также файлы нелегального содержания!