[ Сегодня идет свободное скачивание без начисления Download ]


Статистика раздачи
Нет
 
   
 
Top  
 
 
-Заложница 2 / Taken 2 (2012) BDRemux- Русское название: Заложница 2
Оригинальное название: Taken 2
Год выпуска: 2012
Производство: Франция / Europa Corp., Grive Productions, Canal+
Жанр: Боевик, Триллер, Криминал
Описание фильма:
Брайану Миллсу придется расхлебывать последствия своих действий. Спасая свою дочь, он убил главаря банды, у которого — сюрприз! — есть отец по имени Мурад. Мурад жаждет отмщения и описывается как человек, отдающий приказы, но сам никогда никому не подчиняющийся. Мурад берет в заложники Миллса с супругой, и тут уже Ким Миллс нужно будет спасать своих родителей.
Режиссер: Оливье Мегатон
Актеры: Лиам Нисон, Мэгги Грэйс, Фамке Янссен, Лиленд Орсер, Джон Грайз, Д.Б. Суини, Люк Граймс, Раде Шербеджия, Кеворк Маликян, Ален Фиглаж, Фрэнк Альварез, Мурат Тунселли, Али Йылдирим, Эргун Куйусу, Ченгиз Бозкурт, Хакан Карахан, Сарухан Сари, Наси Адигюзель, Аклан Бейтс, Мехмет Полат, Йилмаз Кован, Эрдоган Явуз, Луран Ахмети, Ченгиз Данер, Мелис Эрман, Эркан Укунку, Угур Угурал, Алекс Дейв, Оливье Рабурден, Михаэль Вандер-Мерен, Рошелль Грегори, Луэнелль, Эмре Мелемез, Илкай Акдагли, Милен Пилутик, Натан Риппи, Атилла Пекоз, Сердар Октен, Месут Макул, Мустафа Акин, Мурат Каратас, Сунейт Янар, Барис Адем, Хасан Карагулле, Газенфер Кокоз, Ремзи Сезгин
Продолжительность: 01:32:08
Перевод: Дублированный
Субтитры: Русские, Английские (Forced,Full, SDH)

Дата мировой премьеры: 7 сентября 2012
Дата российской премьеры: 4 октября 2012, «Централ Партнершип»
Дата выхода DVD релиза: 4 февраля 2013, «Новый Диск»
Видеокодек: MPEG-4 AVC/H.264
Битрейт видео: ~25668 kb/s
Размер кадра: 1920 х 1080
Качество видео: BDRemux
Аудиокодек: DTS, DTS-HD MA
Аудио 1: Русский, DTS, 5.1 / 48 kHz / 768 kbps / 24-bit - Дублированный
Аудио 2: Английский, DTS-HD MA, 5.1 / 48 kHz / 3899 kbps / 24-bit (DTS Core: 5.1 / 48 kHz / 1509 kbps / 24-bit)
Сэмпл: Ссылка

MediaInfo:

Общее
Уникальный идентификатор : 253520737052364311107847416106256984260 (0xBEBA5161F98DC549823495B02D9068C4)
Полное имя : Taken.2.2012.1080p.BDRemux.mkv
Формат : Matroska
Версия формата : Version 4 / Version 2
Размер файла : 19,6 Гбайт
Продолжительность : 1 ч. 32 м.
Режим общего битрейта : Переменный
Общий поток : 30,4 Мбит/сек
Дата кодирования : UTC 2013-02-07 21:56:32
Программа кодирования : mkvmerge v6.0.0 ('Coming Up For Air') built on Jan 20 2013 09:52:00
Библиотека кодирования : libebml v1.3.0 + libmatroska v1.4.0
Видео
Идентификатор : 1
Формат : AVC
Формат/Информация : Advanced Video Codec
Профиль формата : High@L4.1
Параметр CABAC формата : Да
Параметр ReFrames формата : 4 кадра
Идентификатор кодека : V_MPEG4/ISO/AVC
Продолжительность : 1 ч. 32 м.
Вид битрейта : Переменный
Битрейт : 27,5 Мбит/сек
Максимальный битрейт : 30,5 Мбит/сек
Ширина : 1920 пикселей
Высота : 1080 пикселей
Соотношение сторон : 16:9
Режим частоты кадров : Постоянный
Частота кадров : 23,976 кадра/сек
Цветовое пространство : YUV
Субдискретизация насыщенности : 4:2:0
Битовая глубина : 8 бит
Тип развёртки : Прогрессивная
Бит/(Пиксели*Кадры) : 0.553
Размер потока : 17,7 Гбайт (90%)
Язык : English
Default : Нет
Forced : Нет
Аудио #1
Идентификатор : 2
Формат : DTS
Формат/Информация : Digital Theater Systems
Идентификатор кодека : A_DTS
Продолжительность : 1 ч. 32 м.
Вид битрейта : Постоянный
Битрейт : 755 Кбит/сек
Каналы : 6 каналов
Расположение каналов : Front: L C R, Side: L R, LFE
Частота : 48,0 КГц
Битовая глубина : 24 бит
Метод сжатия : С потерями
Размер потока : 497 Мбайт (2%)
Язык : Russian
Default : Да
Forced : Нет
Аудио #2
Идентификатор : 3
Формат : DTS
Формат/Информация : Digital Theater Systems
Профиль формата : MA / Core
Идентификатор кодека : A_DTS
Продолжительность : 1 ч. 32 м.
Вид битрейта : Переменный
Битрейт : 1561 Кбит/сек / 1510 Кбит/сек
Каналы : 6 каналов
Расположение каналов : Front: L C R, Side: L R, LFE
Частота : 48,0 КГц
Битовая глубина : 24 бит
Метод сжатия : Без потерь / Lossy
Язык : English
Default : Нет
Forced : Нет
Текст #1
Идентификатор : 4
Формат : UTF-8
Идентификатор кодека : S_TEXT/UTF8
Идентификатор кодека/Информация : UTF-8 Plain Text
Язык : Russian
Default : Нет
Forced : Нет
Текст #2
Идентификатор : 5
Формат : UTF-8
Идентификатор кодека : S_TEXT/UTF8
Идентификатор кодека/Информация : UTF-8 Plain Text
Заголовок : Forced
Язык : English
Default : Нет
Forced : Нет
Текст #3
Идентификатор : 6
Формат : UTF-8
Идентификатор кодека : S_TEXT/UTF8
Идентификатор кодека/Информация : UTF-8 Plain Text
Язык : English
Default : Нет
Forced : Нет
Текст #4
Идентификатор : 7
Формат : UTF-8
Идентификатор кодека : S_TEXT/UTF8
Идентификатор кодека/Информация : UTF-8 Plain Text
Заголовок : SDH
Язык : English
Default : Нет
Forced : Нет
Меню
00:00:00.000 : en:00:00:00.000
00:04:18.424 : en:00:04:18.424
00:07:24.694 : en:00:07:24.694
00:08:51.280 : en:00:08:51.280
00:12:45.389 : en:00:12:45.389
00:16:01.669 : en:00:16:01.669
00:19:41.179 : en:00:19:41.179
00:22:06.283 : en:00:22:06.283
00:25:10.926 : en:00:25:10.926
00:30:22.946 : en:00:30:22.946
00:34:48.169 : en:00:34:48.169
00:38:06.992 : en:00:38:06.992
00:41:31.322 : en:00:41:31.322
00:45:37.985 : en:00:45:37.985
00:50:35.991 : en:00:50:35.991
00:56:38.853 : en:00:56:38.853
01:00:21.617 : en:01:00:21.617
01:04:41.252 : en:01:04:41.252
01:07:06.939 : en:01:07:06.939
01:10:28.265 : en:01:10:28.265
01:15:44.831 : en:01:15:44.831
01:19:28.471 : en:01:19:28.471
01:23:06.648 : en:01:23:06.648
01:26:02.824 : en:01:26:02.824

BV

Скриншоты:

Время раздачи: 24/7

[Цитировать]



Показать сообщения:    

Текущее время: 29-Апр 09:42

Часовой пояс: UTC + 6


Вы не можете начинать темы
Вы не можете отвечать на сообщения
Вы не можете редактировать свои сообщения
Вы не можете удалять свои сообщения
Вы не можете голосовать в опросах
Вы не можете прикреплять файлы к сообщениям
Вы не можете скачивать файлы

!ВНИМАНИЕ!
Сайт не предоставляет электронные версии произведений, а занимается лишь коллекционированием и каталогизацией ссылок, присылаемых и публикуемых на форуме нашими читателями. Если вы являетесь правообладателем какого-либо представленного материала и не желаете, чтобы ссылка на него находилась в нашем каталоге, свяжитесь с нами, и мы незамедлительно удалим ее. Файлы для обмена на трекере предоставлены пользователями сайта, и администрация не несет ответственности за их содержание. Просьба не заливать файлы, защищенные авторскими правами, а также файлы нелегального содержания!