[ Сегодня идет свободное скачивание без начисления Download ]


Статистика раздачи
Нет
 
   
 
Top  
 
 
Антихрист / Antichrist (2009) Информация о фильме
Название: Антихрист
Оригинальное название: Antichrist
Год выхода: 2009
Жанр: ужасы, драма
Режиссер: Ларс фон Триер
В ролях: Уиллем Дефо, Шарлотта Генсбур, Сторм Акеке Сальстрем
О фильме: Немолодая пара теряет сына — двухлетний мальчик падает из окна, когда родители занимаются любовью. Чувство вины, буквально, сводит с ума мать ребенка, его отец — психотерапевт, пытается помочь жене и увозит ее в старый дом в лесной чаще.
Там герои фильма погружаются в мир странных символов, в их жизнь проникает безумие и насилие. Но даже самые чудовищные страдания мужчины и женщины не в силах притупить их раскаяние и душевную боль.

Выпущено: Zentropa Entertainments
Продолжительность: 01:48:50
Перевод: Профессиональный (многоголосый, закадровый)
Файл
Кодек: x264
Качество: BDRip (источник: Blu-ray Disc)
Видео: 1920x816 (2,35:1), 23.976 fps, 4855 kbps
Аудио #1: AC-3, 6 ch, 448 kbps (Rus)
Аудио #2: AC-3, 6 ch, 448 kbps (Eng)
Субтитры: Русские, Английские
Скачать: сэмпл
Скриншоты

MI

Общее
Уникальный идентификатор : 177395641788393116729859790017860506937 (0x8575286903E87DFA82E5180659449539)
Полное имя : Antichrist.2009.BDRip.1080p.Rus.Eng.mkv
Формат : Matroska
Версия формата : Version 2
Размер файла : 4,37 Гбайт
Продолжительность : 1 ч. 48 м.
Общий поток : 5753 Кбит/сек
Название фильма : Антихрист / Antichrist (2009)
Дата кодирования : UTC 2012-02-29 12:13:41
Программа кодирования : mkvmerge v4.0.0 ('The Stars were mine') сборка от Jun 6 2010 16:18:42
Библиотека кодирования : libebml v1.0.0 + libmatroska v1.0.0
Видео
Идентификатор : 1
Формат : AVC
Формат/Информация : Advanced Video Codec
Профиль формата : [email protected]
Параметр CABAC формата : Да
Параметр ReFrames формата : 5 кадров
Идентификатор кодека : V_MPEG4/ISO/AVC
Продолжительность : 1 ч. 48 м.
Битрейт : 4855 Кбит/сек
Ширина : 1920 пикселей
Высота : 816 пикселей
Соотношение сторон : 2,35:1
Частота кадров : 23,976 кадра/сек
Цветовое пространство : YUV
Субдискретизация насыщенности : 4:2:0
Битовая глубина : 8 бит
Тип развёртки : Прогрессивная
Бит/(Пиксели*Кадры) : 0.129
Размер потока : 3,61 Гбайт (82%)
Заголовок : Release by AlexKa
Библиотека кодирования : x264 core 120 r2164 da19765
Настройки программы : cabac=1 / ref=5 / deblock=1:-3:-3 / analyse=0x3:0x133 / me=umh / subme=10 / psy=1 / psy_rd=1.00:0.10 / mixed_ref=1 / me_range=32 / chroma_me=1 / trellis=2 / 8x8dct=1 / cqm=0 / deadzone=21,11 / fast_pskip=0 / chroma_qp_offset=-3 / threads=12 / sliced_threads=0 / nr=0 / decimate=0 / interlaced=0 / bluray_compat=0 / constrained_intra=0 / bframes=2 / b_pyramid=2 / b_adapt=2 / b_bias=0 / direct=3 / weightb=1 / open_gop=0 / weightp=2 / keyint=240 / keyint_min=24 / scenecut=40 / intra_refresh=0 / rc_lookahead=60 / rc=2pass / mbtree=1 / bitrate=4855 / ratetol=1.0 / qcomp=0.60 / qpmin=0 / qpmax=69 / qpstep=4 / cplxblur=20.0 / qblur=0.5 / ip_ratio=1.40 / aq=1:1.00
Язык : English
Аудио #1
Идентификатор : 2
Формат : AC-3
Формат/Информация : Audio Coding 3
Расширение режима : CM (complete main)
Идентификатор кодека : A_AC3
Продолжительность : 1 ч. 48 м.
Вид битрейта : Постоянный
Битрейт : 448 Кбит/сек
Каналы : 6 каналов
Расположение каналов : Front: L C R, Side: L R, LFE
Частота : 48,0 КГц
Битовая глубина : 16 бит
Метод сжатия : С потерями
Размер потока : 349 Мбайт (8%)
Заголовок : Rus
Язык : Russian
Аудио #2
Идентификатор : 3
Формат : AC-3
Формат/Информация : Audio Coding 3
Расширение режима : CM (complete main)
Идентификатор кодека : A_AC3
Продолжительность : 1 ч. 48 м.
Вид битрейта : Постоянный
Битрейт : 448 Кбит/сек
Каналы : 6 каналов
Расположение каналов : Front: L C R, Side: L R, LFE
Частота : 48,0 КГц
Битовая глубина : 16 бит
Метод сжатия : С потерями
Размер потока : 349 Мбайт (8%)
Заголовок : Eng
Язык : English
Текст #1
Идентификатор : 4
Формат : UTF-8
Идентификатор кодека : S_TEXT/UTF8
Идентификатор кодека/Информация : UTF-8 Plain Text
Заголовок : Rus
Язык : Russian
Текст #2
Идентификатор : 5
Формат : UTF-8
Идентификатор кодека : S_TEXT/UTF8
Идентификатор кодека/Информация : UTF-8 Plain Text
Заголовок : Eng
Язык : English
Меню
00:00:00.000 : :Chapter 01
00:00:42.668 : :Chapter 02
00:06:22.173 : :Chapter 03
00:12:11.522 : :Chapter 04
00:17:42.687 : :Chapter 05
00:22:11.205 : :Chapter 06
00:27:52.546 : :Chapter 07
00:34:00.330 : :Chapter 08
00:37:54.105 : :Chapter 09
00:44:08.813 : :Chapter 10
00:47:52.787 : :Chapter 11
00:51:52.234 : :Chapter 12
00:56:27.926 : :Chapter 13
01:00:58.113 : :Chapter 14
01:04:44.172 : :Chapter 15
01:08:30.273 : :Chapter 16
01:11:08.973 : :Chapter 17
01:18:31.415 : :Chapter 18
01:26:52.124 : :Chapter 19
01:35:09.621 : :Chapter 20
01:40:12.089 : :Chapter 21
01:42:59.048 : :Chapter 22

x264

x264 [info]: frame I:1029 Avg QP:13.64 size:153521
x264 [info]: frame P:63591 Avg QP:16.88 size: 42835
x264 [info]: frame B:91944 Avg QP:20.00 size: 11759

[Цитировать]



Показать сообщения:    

Текущее время: 06-Дек 15:16

Часовой пояс: UTC + 3


Вы не можете начинать темы
Вы не можете отвечать на сообщения
Вы не можете редактировать свои сообщения
Вы не можете удалять свои сообщения
Вы не можете голосовать в опросах
Вы не можете прикреплять файлы к сообщениям
Вы не можете скачивать файлы

!ВНИМАНИЕ!
Сайт не предоставляет электронные версии произведений, а занимается лишь коллекционированием и каталогизацией ссылок, присылаемых и публикуемых на форуме нашими читателями. Если вы являетесь правообладателем какого-либо представленного материала и не желаете, чтобы ссылка на него находилась в нашем каталоге, свяжитесь с нами, и мы незамедлительно удалим ее. Файлы для обмена на трекере предоставлены пользователями сайта, и администрация не несет ответственности за их содержание. Просьба не заливать файлы, защищенные авторскими правами, а также файлы нелегального содержания!