[ Сегодня идет свободное скачивание без начисления Download ]


Статистика раздачи
Скачал: [ 1 ]
 
   
 
Top  
 
 
Трудный возраст / Girl in Progress (2012) Информация о фильме
Название: Трудный возраст
Оригинальное название: Girl in Progress
Год выхода: 2012
Режиссер: Патрисия Ригген
В ролях: Ева Мендес, Мэтью Модайн, Лэндон Либуарон, Патриция Аркетт, Рэйни Родригез, Расселл Питерс, Эухенио Дербес, Ричард Хэрмон, Бренна О’Брайэн, Майкл П. Норти, Ана Мария Эстрада
О фильме:
Грейс — мать одиночка. Она слишком занята разрываемая работой, счетами, и женатым доктором Хартфордом, чтобы дать ее дочери, внимание, в котором она сильно нуждается. Когда учитель английского языка дочери, г-жа Армстронг, знакомит своих учеников с классическими историями скорого совершеннолетия, дочка Грейс вдохновляется, чтобы продолжить свою жизнь без мамы. В то время, когда Грейс озабочена растущей привязанностью своего сотрудника, ее дочка заручается поддержкой своей верной подруги Тавиты, чтобы помочь ей в ее коротком пути к «взрослой жизни». Но Грейс и ее дочь должны понять, что взросление означает вести себя соответственно возрасту.

Страна: США
Студия: Anxiety Productions, Latitude Entertainment, Pantelion Films
Продолжительность: 01:33:20
Перевод: Профессиональный многоголосый, профессиональный двухголосый
Файл
Качество: BDRip-AVC
Видео: MPEG-4 AVC, 2506 Кбит/с, 1024x424, 23.976 кадр/с
Аудио #1: AC3, 2 ch, 192 Кбит/с | Профессиональный многоголосый
Аудио #2: AC3, 2 ch, 192 Кбит/с | Профессиональный двухголосый (Elrom)
Аудио #3: AC3, 6 ch, 448 Кбит/с | Английский
Субтитры: Английские

MediaInfo

Общее
Уникальный идентификатор : 223032680594709659901874784419223715463 (0xA7CA8824ECCBB4889D5B384ED0B43E87)
Полное имя : Girl.in.Progress.2012.BDRip-AVC.mkv
Формат : Matroska
Версия формата : Version 4 / Version 2
Размер файла : 2,18 Гбайт
Продолжительность : 1 ч. 33 м.
Общий поток : 3340 Кбит/сек
Название фильма : Girl in Progress
Режиссёр : Patricia Riggen
Дата кодирования : UTC 2016-08-09 16:07:03
Программа кодирования : mkvmerge v9.2.0 ('Photograph') 32bit
Библиотека кодирования : libebml v1.3.3 + libmatroska v1.4.4
Attachements : cover.jpg
Release : Koenig
DURATION : 01:28:17.985000000
NUMBER_OF_FRAMES : 1154
NUMBER_OF_BYTES : 38103
_STATISTICS_WRITING_APP : mkvmerge v9.2.0 ('Photograph') 32bit
_STATISTICS_WRITING_DATE_UTC : 2016-08-09 16:07:03
_STATISTICS_TAGS : BPS DURATION NUMBER_OF_FRAMES NUMBER_OF_BYTES
Видео
Идентификатор : 1
Формат : AVC
Формат/Информация : Advanced Video Codec
Профиль формата : High@L4.1
Параметр CABAC формата : Да
Параметр ReFrames формата : 9 кадров
Идентификатор кодека : V_MPEG4/ISO/AVC
Продолжительность : 1 ч. 33 м.
Битрейт : 2506 Кбит/сек
Ширина : 1024 пикселя
Высота : 424 пикселя
Соотношение сторон : 2,40:1
Режим частоты кадров : Постоянный
Частота кадров : 23,976 кадра/сек
Цветовое пространство : YUV
Субдискретизация насыщенности : 4:2:0
Битовая глубина : 8 бит
Тип развёртки : Прогрессивная
Бит/(Пиксели*Кадры) : 0.241
Размер потока : 1,59 Гбайт (73%)
Библиотека кодирования : x264 core 148 r2692 64f4e24
Настройки программы : cabac=1 / ref=9 / deblock=1:-3:-3 / analyse=0x3:0x133 / me=umh / subme=10 / psy=1 / psy_rd=1.00:0.00 / mixed_ref=1 / me_range=32 / chroma_me=1 / trellis=2 / 8x8dct=1 / cqm=0 / deadzone=21,11 / fast_pskip=0 / chroma_qp_offset=-2 / threads=3 / lookahead_threads=1 / sliced_threads=0 / nr=0 / decimate=1 / interlaced=0 / bluray_compat=0 / constrained_intra=0 / bframes=12 / b_pyramid=2 / b_adapt=2 / b_bias=0 / direct=3 / weightb=1 / open_gop=0 / weightp=2 / keyint=240 / keyint_min=23 / scenecut=40 / intra_refresh=0 / rc_lookahead=40 / rc=2pass / mbtree=1 / bitrate=2506 / ratetol=1.0 / qcomp=0.60 / qpmin=10 / qpmax=51 / qpstep=4 / cplxblur=20.0 / qblur=0.5 / vbv_maxrate=50000 / vbv_bufsize=62500 / nal_hrd=none / filler=0 / ip_ratio=1.40 / aq=1:1.00
Default : Да
Forced : Нет
Аудио #1
Идентификатор : 2
Формат : AC-3
Формат/Информация : Audio Coding 3
Расширение режима : CM (complete main)
Параметр Endianness формата : Big
Идентификатор кодека : A_AC3
Продолжительность : 1 ч. 33 м.
Вид битрейта : Постоянный
Битрейт : 192 Кбит/сек
Каналы : 2 канала
Расположение каналов : Front: L R
Частота : 48,0 КГц
Метод сжатия : С потерями
Размер потока : 128 Мбайт (6%)
Заголовок : MVO
Язык : Russian
Default : Да
Forced : Нет
Аудио #2
Идентификатор : 3
Формат : AC-3
Формат/Информация : Audio Coding 3
Расширение режима : CM (complete main)
Параметр Endianness формата : Big
Идентификатор кодека : A_AC3
Продолжительность : 1 ч. 33 м.
Вид битрейта : Постоянный
Битрейт : 192 Кбит/сек
Каналы : 2 канала
Расположение каналов : Front: L R
Частота : 48,0 КГц
Метод сжатия : С потерями
Размер потока : 128 Мбайт (6%)
Заголовок : DVO - Elrom
Язык : Russian
Default : Нет
Forced : Нет
Аудио #3
Идентификатор : 4
Формат : AC-3
Формат/Информация : Audio Coding 3
Расширение режима : CM (complete main)
Параметр Endianness формата : Big
Идентификатор кодека : A_AC3
Продолжительность : 1 ч. 33 м.
Вид битрейта : Постоянный
Битрейт : 448 Кбит/сек
Каналы : 6 каналов
Расположение каналов : Front: L C R, Side: L R, LFE
Частота : 48,0 КГц
Метод сжатия : С потерями
Размер потока : 299 Мбайт (13%)
Язык : English
Default : Нет
Forced : Нет
Текст
Идентификатор : 5
Формат : UTF-8
Идентификатор кодека : S_TEXT/UTF8
Идентификатор кодека/Информация : UTF-8 Plain Text
Язык : English
Default : Нет
Forced : Нет
Меню
00:00:00.000 : en:Chapter 01
00:08:21.125 : en:Chapter 02
00:13:45.658 : en:Chapter 03
00:20:53.460 : en:Chapter 04
00:28:13.024 : en:Chapter 05
00:40:06.946 : en:Chapter 06
00:47:57.416 : en:Chapter 07
00:54:00.862 : en:Chapter 08
00:59:29.941 : en:Chapter 09
01:08:21.889 : en:Chapter 10
01:15:13.425 : en:Chapter 11
01:24:07.459 : en:Chapter 12

Скриншоты


[Цитировать]



Показать сообщения:    

Текущее время: 09-Дек 18:34

Часовой пояс: UTC + 3


Вы не можете начинать темы
Вы не можете отвечать на сообщения
Вы не можете редактировать свои сообщения
Вы не можете удалять свои сообщения
Вы не можете голосовать в опросах
Вы не можете прикреплять файлы к сообщениям
Вы не можете скачивать файлы

!ВНИМАНИЕ!
Сайт не предоставляет электронные версии произведений, а занимается лишь коллекционированием и каталогизацией ссылок, присылаемых и публикуемых на форуме нашими читателями. Если вы являетесь правообладателем какого-либо представленного материала и не желаете, чтобы ссылка на него находилась в нашем каталоге, свяжитесь с нами, и мы незамедлительно удалим ее. Файлы для обмена на трекере предоставлены пользователями сайта, и администрация не несет ответственности за их содержание. Просьба не заливать файлы, защищенные авторскими правами, а также файлы нелегального содержания!