[ Сегодня идет свободное скачивание без начисления Download ]


Статистика раздачи
Качаю: [ 1 ]
Скачал: [ 23 ]
 
   
 
Top  
 
 
Специалист | Основы Linux (2016) PCRec - Автор (режиссер): Сорокин Владимир Евгеньевич
Жанр: linux, администрирование
Описание:
Хотите научиться использовать системы Linux в своей работе? Обратите внимание на этот фундаментальный курс, разработанный флагманом IT индустрии – компанией Cisco. Курс проводится с использованием новаторских методик интерактивного очно/заочного обучения от крупнейшего Учебного центра в восточной Европе – «Специалист». Это позволит Вам в короткий срок, не отрываясь от своей основной работы, освоить все нюансы администрирования систем Linux
Курс Основы Linux раскрывает основные принципы работы c операционной системы Linux и интерфейсом CLI, базовые понятия открытого исходного кода (open source). При обучении делается упор на практические задания: предоставляется доступ к виртуальной машине Linux, позволяя на практике изучать и тестировать команды CLI Linux
Продолжительность: 14:59:03
Качество видео: PCRec
Видео: AVC/H.264, 1240x980, ~155-1544 Kbps
Аудио: AAC, 2 ch, 192 Kbps, VBR

Программа курса:

Модуль 1. Введение в Linux
Занятия:
История Linux
Выбор операционной системы
Модуль 2. Открытое программное обеспечение и лицензии
Занятия:
Обзор популярных открытых программных продуктов
Обзор лицензий на открытое ПО
Модуль 3. Использование Linux
Занятия:
Сравнение графического интерфейса и командной строки
Использование Linux в среде виртуализации и облачных вычислений
Использование Linux в качестве рабочей станции
Основы компьютерной безопасности
Модуль 4. Навыки работы в командной строке
Занятия:
Интерфейс командной строки
Терминальный доступ
Команды и алиасы
Переменные и подстановки shell
Символы экранирования
Управление последовательностью выполнения команд
Лабораторные работы:
Упражнение 1: Файлы и директории
Упражнение 2: Переменные окружения
Упражнение 3: Подстановки shell
Упражнение 4: Экранирование выражений
Модуль 5. Получение справочной информации в системе
Занятия:
man страницы
info документация
Дополнительные источники документации
Лабораторные работы:
Упражнение 1: Работа со справочной информацией
Упражнение 2: Поиск файлов
Модуль 6. Работа с файлами и каталогами
Занятия:
Организация файлов и каталогов
Команды для работы с файлами и каталогами
Лабораторные работы:
Упражнение 1: Навигация по файловой системе
Упражнение 2: Просмотр списков файлов и каталогов
Упражнение 3: Копирование, перемещение и переименование файлов и каталогов
Модуль 7. Сжатие и архивирование данных
Занятия:
Варианты сжатия информации
Архивирование данных
Лабораторные работы:
Упражнение 1: Использование команд архивирования
Модуль 8. Управление потоками ввода/вывода, каналы и регулярные выражения
Занятия:
Перенаправление ввода/вывода
Поиск файлов
Просмотр содержимого файлов
Сортировка информации
Команды фильтры
Регулярные выражения
Генерация и выполнения команд из стандартного вывода
Лабораторные работы: Основы работы в командном интерфейсе.
Упражнение 1: Использование перенаправления ввода/вывода и конвейеров
Упражнение 2: Использование команды find
Упражнение 3: Просмотр больших текстовых файлов
Упражнение 4: Поиск текста с использованием регулярных выражений
Модуль 9. Написание сценариев на языке командной оболочки
Занятия:
Что такое скрипт
Использование текстовых редакторов
Алгоритмические конструкции языка сценариев
Лабораторные работы:
Упражнение 1: Использование редактора vi
Упражнение 2: Создание простых сценариев
Упражнение 3: Использование алгоритмических конструкций в сценариях
Модуль 10. Аппаратные средства
Занятия:
Процессор
Материнская плата и шины
Слой аппаратных абстракций
Дисковая подсистема
Видео адаптеры
Управление устройстваи
Лабораторные работы:
Упражнение 1: Анализ оборудования системы
Модуль 11. Управление программным обеспечением и процессами
Занятия:
Менеджеры пакетов
Ядро Linux
Иерархия процессов
Файлы журналов
Лабораторные работы: Основы работы в командном интерфейсе.
Упражнение 1: Ядро и файловая система /proc
Упражнение 2: Управление процессами
Упражнение 3: Использование top для просмотра процессов
Упражнение 4: Использование kill и pkill для остановки процессов
Упражнение 5: Использование ps для выбора и сортировки процессов
Упражнение 6: Просмотр системных журналов
Упражнение 7: Разделяемые библиотеки
Модуль 12. Настройка сети
Занятия:
Основные термины, понятия и компоненты компьютерной сети
IP адресация
Настройка сетевых адаптеров
Утилиты для работы с сетью
Лабораторные работы:
Упражнение 1: Работа с сетью
Модуль 13. Система безопасности
Занятия:
Учетные записи
Группы
Учетная запись root
Команды su и sudo
Команды who и w
Лабораторные работы:
Упражнение 1: Просмотр учетных записей и групп
Упражнение 2: Просмотр активных сессий в системе
Упражнение 3: Использование учетной записи root
Модуль 14. Управление пользователями
Занятия:
Команды для управление учетными записями и группами
Лабораторные работы:
Упражнение 1: Создание учетных записей и групп
Модуль 15. Управление правами доступа
Занятия:
Права доступа к файлам
Права доступа к директориям
Команда stat
Команда umask
Лабораторные работы:
Упражнение 1: Управление правами доступа
Модуль 16. Специальные разрешения, линки и иерархия файловой системы
Занятия:
Использование битов setuid, setgid и sticky
Жесткие и мягкие ссылки
Стандарт иерархии файловой системы
Лабораторные работы: Основы работы в командном интерфейсе.
Упражнение 1: Использование специальных разрешений
Упражнение 2: Использование ссылок

Mediainfo:

General
Complete name : C:\torrent\Основы Linux\1 день\1 день.mp4
Format : MPEG-4
Format profile : Base Media
Codec ID : isom (mp41)
File size : 507 MiB
Duration : 3h 30mn
Overall bit rate mode : Variable
Overall bit rate : 337 Kbps
Encoded date : UTC 2016-06-05 11:06:12
Tagged date : UTC 2016-06-05 11:06:12
Writing application : BandiMp4Muxer 1.0
Video
ID : 1
Format : AVC
Format/Info : Advanced Video Codec
Format profile : Main@L4.2
Format settings, CABAC : Yes
Format settings, ReFrames : 1 frame
Codec ID : avc1
Codec ID/Info : Advanced Video Coding
Duration : 3h 30mn
Bit rate : 155 Kbps
Width : 1 240 pixels
Height : 980 pixels
Display aspect ratio : 5:4
Frame rate mode : Variable
Frame rate : 47.069 fps
Minimum frame rate : 15.000 fps
Maximum frame rate : 60.060 fps
Original frame rate : 60.000 fps
Color space : YUV
Chroma subsampling : 4:2:0
Bit depth : 8 bits
Scan type : Progressive
Bits/(Pixel*Frame) : 0.003
Stream size : 233 MiB (46%)
Language : English
Encoded date : UTC 2016-06-05 11:06:12
Tagged date : UTC 2016-06-05 11:06:12
Audio
ID : 2
Format : AAC
Format/Info : Advanced Audio Codec
Format profile : LC
Codec ID : 40
Duration : 3h 30mn
Bit rate mode : Variable
Bit rate : 173 Kbps
Maximum bit rate : 296 Kbps
Channel(s) : 2 channels
Channel positions : Front: L R
Sampling rate : 48.0 KHz
Frame rate : 46.875 fps (1024 spf)
Compression mode : Lossy
Stream size : 260 MiB (51%)
Language : English
Encoded date : UTC 2016-06-05 11:06:12
Tagged date : UTC 2016-06-05 11:06:12
General
Complete name : C:\torrent\Основы Linux\1 день\1606-LINUX-ESSEN\00\1.mp4
Format : MPEG-4
Format profile : Base Media
Codec ID : isom (mp41)
File size : 4.88 MiB
Duration : 56s 650ms
Overall bit rate mode : Variable
Overall bit rate : 723 Kbps
Encoded date : UTC 2016-06-06 05:15:24
Tagged date : UTC 2016-06-06 05:15:24
Writing application : BandiMp4Muxer 1.0
Video
ID : 1
Format : AVC
Format/Info : Advanced Video Codec
Format profile : Main@L4.2
Format settings, CABAC : Yes
Format settings, ReFrames : 1 frame
Codec ID : avc1
Codec ID/Info : Advanced Video Coding
Duration : 56s 650ms
Bit rate : 716 Kbps
Width : 1 912 pixels
Height : 980 pixels
Display aspect ratio : 1.951
Frame rate mode : Variable
Frame rate : 18.411 fps
Minimum frame rate : 0.432 fps
Maximum frame rate : 60.060 fps
Original frame rate : 60.000 fps
Color space : YUV
Chroma subsampling : 4:2:0
Bit depth : 8 bits
Scan type : Progressive
Bits/(Pixel*Frame) : 0.021
Stream size : 4.83 MiB (99%)
Language : English
Encoded date : UTC 2016-06-06 05:15:24
Tagged date : UTC 2016-06-06 05:15:24
Audio
ID : 2
Format : AAC
Format/Info : Advanced Audio Codec
Format profile : LC
Codec ID : 40
Duration : 56s 576ms
Duration_LastFrame : -21ms
Bit rate mode : Variable
Bit rate : 2 250 bps
Maximum bit rate : 192 Kbps
Channel(s) : 2 channels
Channel positions : Front: L R
Sampling rate : 48.0 KHz
Frame rate : 46.875 fps (1024 spf)
Compression mode : Lossy
Stream size : 15.5 KiB (0%)
Language : English
Encoded date : UTC 2016-06-06 05:15:24
Tagged date : UTC 2016-06-06 05:15:24
General
Complete name : C:\torrent\Основы Linux\1 день\1606-LINUX-ESSEN\01\1.mp4
Format : MPEG-4
Format profile : Base Media
Codec ID : isom (mp41)
File size : 12.0 MiB
Duration : 1mn 4s
Overall bit rate mode : Variable
Overall bit rate : 1 551 Kbps
Encoded date : UTC 2016-06-06 05:21:29
Tagged date : UTC 2016-06-06 05:21:29
Writing application : BandiMp4Muxer 1.0
Video
ID : 1
Format : AVC
Format/Info : Advanced Video Codec
Format profile : Main@L4.2
Format settings, CABAC : Yes
Format settings, ReFrames : 1 frame
Codec ID : avc1
Codec ID/Info : Advanced Video Coding
Duration : 1mn 4s
Bit rate : 1 544 Kbps
Width : 1 912 pixels
Height : 980 pixels
Display aspect ratio : 1.951
Frame rate mode : Variable
Frame rate : 14.792 fps
Minimum frame rate : 0.779 fps
Maximum frame rate : 60.060 fps
Original frame rate : 60.000 fps
Color space : YUV
Chroma subsampling : 4:2:0
Bit depth : 8 bits
Scan type : Progressive
Bits/(Pixel*Frame) : 0.056
Stream size : 11.9 MiB (100%)
Language : English
Encoded date : UTC 2016-06-06 05:21:29
Tagged date : UTC 2016-06-06 05:21:29
Audio
ID : 2
Format : AAC
Format/Info : Advanced Audio Codec
Format profile : LC
Codec ID : 40
Duration : 1mn 4s
Duration_LastFrame : -21ms
Bit rate mode : Variable
Bit rate : 2 250 bps
Maximum bit rate : 192 Kbps
Channel(s) : 2 channels
Channel positions : Front: L R
Sampling rate : 48.0 KHz
Frame rate : 46.875 fps (1024 spf)
Compression mode : Lossy
Stream size : 17.8 KiB (0%)
Language : English
Encoded date : UTC 2016-06-06 05:21:29
Tagged date : UTC 2016-06-06 05:21:29
General
Complete name : C:\torrent\Основы Linux\1 день\1606-LINUX-ESSEN\01\2.mp4
Format : MPEG-4
Format profile : Base Media
Codec ID : isom (mp41)
File size : 2.64 MiB
Duration : 26s 17ms
Overall bit rate mode : Variable
Overall bit rate : 851 Kbps
Encoded date : UTC 2016-06-06 17:19:12
Tagged date : UTC 2016-06-06 17:19:12
Writing application : BandiMp4Muxer 1.0
Video
ID : 1
Format : AVC
Format/Info : Advanced Video Codec
Format profile : Main@L4.2
Format settings, CABAC : Yes
Format settings, ReFrames : 1 frame
Codec ID : avc1
Codec ID/Info : Advanced Video Coding
Duration : 26s 17ms
Bit rate : 841 Kbps
Width : 1 912 pixels
Height : 980 pixels
Display aspect ratio : 1.951
Frame rate mode : Variable
Frame rate : 30.135 fps
Minimum frame rate : 15.000 fps
Maximum frame rate : 60.060 fps
Original frame rate : 60.000 fps
Color space : YUV
Chroma subsampling : 4:2:0
Bit depth : 8 bits
Scan type : Progressive
Bits/(Pixel*Frame) : 0.015
Stream size : 2.61 MiB (99%)
Language : English
Encoded date : UTC 2016-06-06 17:19:12
Tagged date : UTC 2016-06-06 17:19:12
Audio
ID : 2
Format : AAC
Format/Info : Advanced Audio Codec
Format profile : LC
Codec ID : 40
Duration : 25s 963ms
Duration_LastFrame : -21ms
Bit rate mode : Variable
Bit rate : 2 251 bps
Maximum bit rate : 192 Kbps
Channel(s) : 2 channels
Channel positions : Front: L R
Sampling rate : 48.0 KHz
Frame rate : 46.875 fps (1024 spf)
Compression mode : Lossy
Stream size : 7.14 KiB (0%)
Language : English
Encoded date : UTC 2016-06-06 17:19:12
Tagged date : UTC 2016-06-06 17:19:12
General
Complete name : C:\torrent\Основы Linux\1 день\1606-LINUX-ESSEN\02\1.mp4
Format : MPEG-4
Format profile : Base Media
Codec ID : isom (mp41)
File size : 15.9 MiB
Duration : 1mn 1s
Overall bit rate mode : Variable
Overall bit rate : 2 172 Kbps
Encoded date : UTC 2016-06-06 05:19:02
Tagged date : UTC 2016-06-06 05:19:02
Writing application : BandiMp4Muxer 1.0
Video
ID : 1
Format : AVC
Format/Info : Advanced Video Codec
Format profile : Main@L4.2
Format settings, CABAC : Yes
Format settings, ReFrames : 1 frame
Codec ID : avc1
Codec ID/Info : Advanced Video Coding
Duration : 1mn 1s
Bit rate : 2 165 Kbps
Width : 1 912 pixels
Height : 980 pixels
Display aspect ratio : 1.951
Frame rate mode : Variable
Frame rate : 12.302 fps
Minimum frame rate : 0.645 fps
Maximum frame rate : 60.060 fps
Original frame rate : 60.000 fps
Color space : YUV
Chroma subsampling : 4:2:0
Bit depth : 8 bits
Scan type : Progressive
Bits/(Pixel*Frame) : 0.094
Stream size : 15.9 MiB (100%)
Language : English
Encoded date : UTC 2016-06-06 05:19:02
Tagged date : UTC 2016-06-06 05:19:02
Audio
ID : 2
Format : AAC
Format/Info : Advanced Audio Codec
Format profile : LC
Codec ID : 40
Duration : 1mn 1s
Duration_LastFrame : -21ms
Bit rate mode : Variable
Bit rate : 2 250 bps
Maximum bit rate : 192 Kbps
Channel(s) : 2 channels
Channel positions : Front: L R
Sampling rate : 48.0 KHz
Frame rate : 46.875 fps (1024 spf)
Compression mode : Lossy
Stream size : 16.9 KiB (0%)
Language : English
Encoded date : UTC 2016-06-06 05:19:02
Tagged date : UTC 2016-06-06 05:19:02
General
Complete name : C:\torrent\Основы Linux\1 день\1606-LINUX-ESSEN\02\2.mp4
Format : MPEG-4
Format profile : Base Media
Codec ID : isom (mp41)
File size : 1.92 MiB
Duration : 32s 133ms
Overall bit rate mode : Variable
Overall bit rate : 502 Kbps
Encoded date : UTC 2016-06-06 17:21:11
Tagged date : UTC 2016-06-06 17:21:11
Writing application : BandiMp4Muxer 1.0
Video
ID : 1
Format : AVC
Format/Info : Advanced Video Codec
Format profile : Main@L4.2
Format settings, CABAC : Yes
Format settings, ReFrames : 1 frame
Codec ID : avc1
Codec ID/Info : Advanced Video Coding
Duration : 32s 133ms
Bit rate : 492 Kbps
Width : 1 912 pixels
Height : 980 pixels
Display aspect ratio : 1.951
Frame rate mode : Variable
Frame rate : 36.660 fps
Minimum frame rate : 12.000 fps
Maximum frame rate : 60.060 fps
Original frame rate : 60.000 fps
Color space : YUV
Chroma subsampling : 4:2:0
Bit depth : 8 bits
Scan type : Progressive
Bits/(Pixel*Frame) : 0.007
Stream size : 1.88 MiB (98%)
Language : English
Encoded date : UTC 2016-06-06 17:21:11
Tagged date : UTC 2016-06-06 17:21:11
Audio
ID : 2
Format : AAC
Format/Info : Advanced Audio Codec
Format profile : LC
Codec ID : 40
Duration : 32s 64ms
Duration_LastFrame : -21ms
Bit rate mode : Variable
Bit rate : 2 251 bps
Maximum bit rate : 192 Kbps
Channel(s) : 2 channels
Channel positions : Front: L R
Sampling rate : 48.0 KHz
Frame rate : 46.875 fps (1024 spf)
Compression mode : Lossy
Stream size : 8.81 KiB (0%)
Language : English
Encoded date : UTC 2016-06-06 17:21:11
Tagged date : UTC 2016-06-06 17:21:11
General
Complete name : C:\torrent\Основы Linux\1 день\1606-LINUX-ESSEN\03\1.mp4
Format : MPEG-4
Format profile : Base Media
Codec ID : isom (mp41)
File size : 14.4 MiB
Duration : 1mn 37s
Overall bit rate mode : Variable
Overall bit rate : 1 237 Kbps
Encoded date : UTC 2016-06-06 05:23:44
Tagged date : UTC 2016-06-06 05:23:44
Writing application : BandiMp4Muxer 1.0
Video
ID : 1
Format : AVC
Format/Info : Advanced Video Codec
Format profile : Main@L4.2
Format settings, CABAC : Yes
Format settings, ReFrames : 1 frame
Codec ID : avc1
Codec ID/Info : Advanced Video Coding
Duration : 1mn 37s
Bit rate : 1 231 Kbps
Width : 1 912 pixels
Height : 980 pixels
Display aspect ratio : 1.951
Frame rate mode : Variable
Frame rate : 15.942 fps
Minimum frame rate : 0.723 fps
Maximum frame rate : 60.060 fps
Original frame rate : 60.000 fps
Color space : YUV
Chroma subsampling : 4:2:0
Bit depth : 8 bits
Scan type : Progressive
Bits/(Pixel*Frame) : 0.041
Stream size : 14.3 MiB (99%)
Language : English
Encoded date : UTC 2016-06-06 05:23:44
Tagged date : UTC 2016-06-06 05:23:44
Audio
ID : 2
Format : AAC
Format/Info : Advanced Audio Codec
Format profile : LC
Codec ID : 40
Duration : 1mn 37s
Duration_LastFrame : -21ms
Bit rate mode : Variable
Bit rate : 2 250 bps
Maximum bit rate : 192 Kbps
Channel(s) : 2 channels
Channel positions : Front: L R
Sampling rate : 48.0 KHz
Frame rate : 46.875 fps (1024 spf)
Compression mode : Lossy
Stream size : 26.7 KiB (0%)
Language : English
Encoded date : UTC 2016-06-06 05:23:44
Tagged date : UTC 2016-06-06 05:23:44
General
Complete name : C:\torrent\Основы Linux\1 день\1606-LINUX-ESSEN\03\2.mp4
Format : MPEG-4
Format profile : Base Media
Codec ID : isom (mp41)
File size : 2.05 MiB
Duration : 27s 800ms
Overall bit rate mode : Variable
Overall bit rate : 617 Kbps
Encoded date : UTC 2016-06-06 17:22:20
Tagged date : UTC 2016-06-06 17:22:20
Writing application : BandiMp4Muxer 1.0
Video
ID : 1
Format : AVC
Format/Info : Advanced Video Codec
Format profile : Main@L4.2
Format settings, CABAC : Yes
Format settings, ReFrames : 1 frame
Codec ID : avc1
Codec ID/Info : Advanced Video Coding
Duration : 27s 800ms
Bit rate : 606 Kbps
Width : 1 912 pixels
Height : 980 pixels
Display aspect ratio : 1.951
Frame rate mode : Variable
Frame rate : 36.619 fps
Minimum frame rate : 10.000 fps
Maximum frame rate : 60.060 fps
Original frame rate : 60.000 fps
Color space : YUV
Chroma subsampling : 4:2:0
Bit depth : 8 bits
Scan type : Progressive
Bits/(Pixel*Frame) : 0.009
Stream size : 2.01 MiB (98%)
Language : English
Encoded date : UTC 2016-06-06 17:22:20
Tagged date : UTC 2016-06-06 17:22:20
Audio
ID : 2
Format : AAC
Format/Info : Advanced Audio Codec
Format profile : LC
Codec ID : 40
Duration : 27s 776ms
Duration_LastFrame : -21ms
Bit rate mode : Variable
Bit rate : 2 251 bps
Maximum bit rate : 192 Kbps
Channel(s) : 2 channels
Channel positions : Front: L R
Sampling rate : 48.0 KHz
Frame rate : 46.875 fps (1024 spf)
Compression mode : Lossy
Stream size : 7.63 KiB (0%)
Language : English
Encoded date : UTC 2016-06-06 17:22:20
Tagged date : UTC 2016-06-06 17:22:20
Скриншоты:

[Цитировать]

Благодарю Отличный курс на бэст трекере

[Цитировать]



Показать сообщения:    

Текущее время: 11-Дек 12:56

Часовой пояс: UTC + 3


Вы не можете начинать темы
Вы не можете отвечать на сообщения
Вы не можете редактировать свои сообщения
Вы не можете удалять свои сообщения
Вы не можете голосовать в опросах
Вы не можете прикреплять файлы к сообщениям
Вы не можете скачивать файлы

!ВНИМАНИЕ!
Сайт не предоставляет электронные версии произведений, а занимается лишь коллекционированием и каталогизацией ссылок, присылаемых и публикуемых на форуме нашими читателями. Если вы являетесь правообладателем какого-либо представленного материала и не желаете, чтобы ссылка на него находилась в нашем каталоге, свяжитесь с нами, и мы незамедлительно удалим ее. Файлы для обмена на трекере предоставлены пользователями сайта, и администрация не несет ответственности за их содержание. Просьба не заливать файлы, защищенные авторскими правами, а также файлы нелегального содержания!