[ Сегодня идет свободное скачивание без начисления Download ]


Статистика раздачи
Нет
 
   
 
Top  
 
 
Зловещие Алкаши 4: Алкогольная Книга / Evil Dead (2016) BDrip 720p Информация о фильме
Название: Зловещие Алкаши 4: Алкогольная Книга
Оригинальное название: Evil Dead
Год выхода: 2016
Жанр: ужасы, фэнтези, боевик, комедия, пародия
Режиссер: Федерико Альварес, Родольфо Саягес, Сэм Рэйми
В ролях: Джейн Леви, Шайло Фернандес, Лу Тэйлор Пуччи, Джессика Лукас, Элизабет Блэкмор, Феникс Коннолли, Джим МакЛарти, Сиан Дэвис, Стефен Баттерворф, Карл Виллетц
О фильме:
После подавления вспышки алкогольной эпидемии правительство ввело Антиалкогольный закон, спустя 20 лет компания молодых людей решает его нарушить....но они не знали к чему это приведет.
Страна: США
Студия: FilmDistrict, Ghost House Pictures, TriStar Pictures
Продолжительность: 01:28:17
Перевод: Любительский одноголосый (смешной перевод студии DEADPOOL PROJECT)
Файл
Кодек: AVC
Качество: BDRip 720p
Формат: MKV
Видео: 1280x720, 16:9, 4 272 Kbps, 30.000 fps
Звук: AC-3, 640 Kbps, 48.0 KHz, 2 channels
Семпл
Примечание автора раздачи:
Релиз от Альянса Вольных Переводчиков.
Присутствует нецензурная лексика.
Пародия монтажная, присутствуют вставки из других фильмов.

Скриншоты

MI

General
Unique ID : 97256290604685297732395350618527593582 (0x492AE1571E1ADADB14C24F8491A1746E)
Complete name : G:Zloveshie_Alcashi4 BDrip.2016_by deadpool_project.mkv
Format : Matroska
Format version : Version 4 / Version 2
File size : 3.03 GiB
Duration : 1h 28mn
Overall bit rate : 4 918 Kbps
Writing application : Lavf56.25.101
Writing library : Lavf56.25.101 / Lavf56.25.101
Video
ID : 1
Format : AVC
Format/Info : Advanced Video Codec
Format profile : [email protected]
Format settings, CABAC : Yes
Format settings, ReFrames : 4 frames
Codec ID : V_MPEG4/ISO/AVC
Duration : 1h 28mn
Bit rate : 4 272 Kbps
Width : 1 280 pixels
Height : 720 pixels
Display aspect ratio : 16:9
Frame rate mode : Constant
Frame rate : 30.000 fps
Color space : YUV
Chroma subsampling : 4:2:0
Bit depth : 8 bits
Scan type : Progressive
Bits/(Pixel*Frame) : 0.155
Stream size : 2.58 GiB (85%)
Writing library : x264 core 144 r2533 c8a773e
Encoding settings : cabac=1 / ref=3 / deblock=1:0:0 / analyse=0x3:0x113 / me=hex / subme=7 / psy=1 / psy_rd=1.00:0.00 / mixed_ref=1 / me_range=16 / chroma_me=1 / trellis=1 / 8x8dct=1 / cqm=0 / deadzone=21,11 / fast_pskip=1 / chroma_qp_offset=-2 / threads=12 / lookahead_threads=2 / sliced_threads=0 / nr=0 / decimate=1 / interlaced=0 / bluray_compat=0 / constrained_intra=0 / bframes=3 / b_pyramid=2 / b_adapt=1 / b_bias=0 / direct=1 / weightb=1 / open_gop=0 / weightp=2 / keyint=250 / keyint_min=25 / scenecut=40 / intra_refresh=0 / rc_lookahead=40 / rc=abr / mbtree=1 / bitrate=4272 / ratetol=1.0 / qcomp=0.60 / qpmin=0 / qpmax=69 / qpstep=4 / ip_ratio=1.40 / aq=1:1.00
Language : English
Default : Yes
Forced : No
Encoded date : UTC 2016-08-05 18:20:53
HANDLER_NAME : Mainconcept MP4 Video Media Handler
Audio
ID : 2
Format : AC-3
Format/Info : Audio Coding 3
Mode extension : CM (complete main)
Format settings, Endianness : Big
Codec ID : A_AC3
Duration : 1h 28mn
Bit rate mode : Constant
Bit rate : 640 Kbps
Channel(s) : 2 channels
Channel positions : Front: L R
Sampling rate : 48.0 KHz
Frame rate : 31.250 fps (1536 spf)
Bit depth : 32 bits
Compression mode : Lossy
Delay relative to video : -5ms
Stream size : 404 MiB (13%)
Writing library : Lavc56.41.100 ac3
Language : English
Default : Yes
Forced : No
Encoded date : UTC 2016-08-05 18:20:53
HANDLER_NAME : Mainconcept MP4 Sound Media Handler

[Цитировать]



Показать сообщения:    

Текущее время: 06-Дек 17:12

Часовой пояс: UTC + 3


Вы не можете начинать темы
Вы не можете отвечать на сообщения
Вы не можете редактировать свои сообщения
Вы не можете удалять свои сообщения
Вы не можете голосовать в опросах
Вы не можете прикреплять файлы к сообщениям
Вы не можете скачивать файлы

!ВНИМАНИЕ!
Сайт не предоставляет электронные версии произведений, а занимается лишь коллекционированием и каталогизацией ссылок, присылаемых и публикуемых на форуме нашими читателями. Если вы являетесь правообладателем какого-либо представленного материала и не желаете, чтобы ссылка на него находилась в нашем каталоге, свяжитесь с нами, и мы незамедлительно удалим ее. Файлы для обмена на трекере предоставлены пользователями сайта, и администрация не несет ответственности за их содержание. Просьба не заливать файлы, защищенные авторскими правами, а также файлы нелегального содержания!