[ Сегодня идет свободное скачивание без начисления Download ]


Статистика раздачи
Нет
 
   
 
Top  
 
 
-Конец света / End of Days (1999) BDRemux-«You will bear witness to the End of Days...»- Русское название: Конец света
Оригинальное название: End of Days
Год выпуска: 1999
Жанр: Ужасы, Боевик, Триллер
Выпущено: США
Студия: Beacon Communications LLC, Universal Pictures-Описание фильма:
Ее рождения боялись веками. С начала эры в своих одиноких кельях отшельники переписывали слова страшного пророчества. В глубине времен звезды предсказали младенцу страшную судьбу: она должна стать невестой самого Дьявола. И в конце тысячелетия Сатана восстанет из ада, чтобы вступить с несчастной в страшный союз. Если это случится, на земле наступит царство Зла и человечество навсегда погрузится во тьму. Ужасное пророчество, в которое боялись поверить, сбылось. Князь тьмы вырвался из заточения в поисках своей невесты. Время повернуло вспять, отсчитывая мгновения до рокового финала. Но предсказатели не учли одного — того, кто осмелился встать на пути у всесильного Люцифера, чтобы в одиночку остановить Апокалипсис…-Режиссер: Питер Хайамс
Актеры: Арнольд Шварценеггер, Гэбриел Бирн, Робин Танни, Кевин Поллак, Си Си Эйч Паундер, Деррик О’Коннор, Дэвид Вайзенберг, Райнер Джудд, Мириам Маргулис, Удо Кир, Виктор Варнадо, Майкл О’Хаган, Марк Марголис, Джек Ширер, Род Стайгер, Ив Сигалл, Лучиано Миле, Роберт Лессер, Ллойд Гарровэй, Гари Энтони Уильямс, Джон Нилсен, Яннис Богрис, Эллиот Голдваг, Илэйн Коррал Кендалл, Денис Д. Льюис, Рени Олстэд, Мэтт Галлини, Марк Лоуренс, Ван Кваттро, Чарльз А. Тамбурро, Линн Мари Сейджер, Линда Пайн, Дэвид Франко, Стив Крамер, Мелисса Маскара, Джон Тимоти Ботка, Уолтер Фон Хьюн, отец Майкл Роча-Продолжительность: 02:02:17
Перевод: Дублированный, профессиональный многоголосый, авторский одноголосый
Релиз группа: DestinationMan
Язык субтитров: Русские, английские
Вид субтитров: Вшитые- -Дата мировой премьеры: 16 ноября 1999
Дата российской премьеры: 24 ноября 1999
Качество видео: BDRemux-Видео: MPEG-4 AVC, 17460 Кбит/с, 1920x1080, 23.976 кадр/с
Аудио#1: Английский (DTS-HD MA 5.1, 6 ch, 4465 Кбит/с) - Оригинальная дорожка
Аудио#2: Русский (АС3, 6 ch, 448 Кбит/с) - Дублированный
Аудио#3: Русский (АС3, 6 ch, 448 Кбит/с) - Профессиональный многоголосый - Карусель
Аудио#4: Русский (АС3, 6 ch, 448 Кбит/с) - Профессиональный многоголосый - С.Р.И.
Аудио#5: Русский (DTS, 6 ch, 1510 Кбит/с) - Профессиональный многоголосый - Карусель
Аудио#6: Русский (АС3, 2 ch, 192 Кбит/с) - Профессиональный многоголосый - ОРТ
Аудио#7: Русский (АС3, 2 ch, 128 Кбит/с) - Профессиональный многоголосый - НТВ
Аудио#8: Русский (АС3, 6 ch, 448 Кбит/с) - Авторский одноголосый - Андрей Гаврилов
Аудио#9: Русский (АС3, 2 ch, 192 Кбит/с) - Авторский одноголосый - Андрей Дольский-

MediaInfo

General
Unique ID                      : 211099916409300695771666524465558885068 (0x9ED05D72695A49B79A7F9CBB2E4A92CC)
Complete name                  : E:\Раздачи\Конец света 1999 BDRemux.1080p_DestinationMan.mkv
Format                         : Matroska
Format version                 : Version 2
File size                      : 22.0 GiB
Duration                       : 2h 2mn
Overall bit rate mode          : Variable
Overall bit rate               : 25.7 Mbps
Encoded date                   : UTC 2013-01-27 07:28:03
Writing application            : mkvmerge v5.6.0 ('Kenya Kane') built on Jun 29 2012 15:01:44
Writing library                : libebml v1.2.3 + libmatroska v1.3.0
Video
ID                             : 1
Format                         : AVC
Format/Info                    : Advanced Video Codec
Format profile                 : [url=mailto:High@L4.1]High@L4.1[/url]
Format settings, CABAC         : Yes
Format settings, ReFrames      : 3 frames
Codec ID                       : V_MPEG4/ISO/AVC
Duration                       : 2h 2mn
Bit rate mode                  : Variable
Bit rate                       : 19.8 Mbps
Maximum bit rate               : 40.0 Mbps
Width                          : 1 920 pixels
Height                         : 1 080 pixels
Display aspect ratio           : 16:9
Frame rate                     : 23.976 fps
Color space                    : YUV
Chroma subsampling             : 4:2:0
Bit depth                      : 8 bits
Scan type                      : Progressive
Bits/(Pixel*Frame)             : 0.397
Stream size                    : 16.9 GiB (77%)
Default                        : Yes
Forced                         : No
Audio #1
ID                             : 2
Format                         : DTS
Format/Info                    : Digital Theater Systems
Format profile                 : MA / Core
Codec ID                       : A_DTS
Duration                       : 2h 2mn
Bit rate mode                  : Variable
Bit rate                       : 1 576 Kbps / 1 510 Kbps
Channel(s)                     : 6 channels
Channel positions              : Front: L C R, Side: L R, LFE
Sampling rate                  : 48.0 KHz
Bit depth                      : 24 bits
Compression mode               : Lossless / Lossy
Language                       : English
Default                        : Yes
Forced                         : No
Audio #2
ID                             : 3
Format                         : AC-3
Format/Info                    : Audio Coding 3
Mode extension                 : CM (complete main)
Format settings, Endianness    : Big
Codec ID                       : A_AC3
Duration                       : 2h 2mn
Bit rate mode                  : Constant
Bit rate                       : 448 Kbps
Channel(s)                     : 6 channels
Channel positions              : Front: L C R, Side: L R, LFE
Sampling rate                  : 48.0 KHz
Bit depth                      : 16 bits
Compression mode               : Lossy
Stream size                    : 393 MiB (2%)
Language                       : Russian
Default                        : No
Forced                         : No
Audio #3
ID                             : 4
Format                         : AC-3
Format/Info                    : Audio Coding 3
Mode extension                 : CM (complete main)
Format settings, Endianness    : Big
Codec ID                       : A_AC3
Duration                       : 2h 2mn
Bit rate mode                  : Constant
Bit rate                       : 448 Kbps
Channel(s)                     : 6 channels
Channel positions              : Front: L C R, Side: L R, LFE
Sampling rate                  : 48.0 KHz
Bit depth                      : 16 bits
Compression mode               : Lossy
Stream size                    : 393 MiB (2%)
Language                       : Russian
Default                        : No
Forced                         : No
Audio #4
ID                             : 5
Format                         : AC-3
Format/Info                    : Audio Coding 3
Mode extension                 : CM (complete main)
Format settings, Endianness    : Big
Codec ID                       : A_AC3
Duration                       : 2h 2mn
Bit rate mode                  : Constant
Bit rate                       : 448 Kbps
Channel(s)                     : 6 channels
Channel positions              : Front: L C R, Side: L R, LFE
Sampling rate                  : 48.0 KHz
Bit depth                      : 16 bits
Compression mode               : Lossy
Stream size                    : 393 MiB (2%)
Language                       : Russian
Default                        : No
Forced                         : No
Audio #5
ID                             : 6
Format                         : AC-3
Format/Info                    : Audio Coding 3
Mode extension                 : CM (complete main)
Format settings, Endianness    : Big
Codec ID                       : A_AC3
Duration                       : 2h 2mn
Bit rate mode                  : Constant
Bit rate                       : 448 Kbps
Channel(s)                     : 6 channels
Channel positions              : Front: L C R, Side: L R, LFE
Sampling rate                  : 48.0 KHz
Bit depth                      : 16 bits
Compression mode               : Lossy
Stream size                    : 393 MiB (2%)
Language                       : Russian
Default                        : No
Forced                         : No
Audio #6
ID                             : 9
Format                         : DTS
Format/Info                    : Digital Theater Systems
Codec ID                       : A_DTS
Duration                       : 2h 2mn
Bit rate mode                  : Constant
Bit rate                       : 1 510 Kbps
Channel(s)                     : 6 channels
Channel positions              : Front: L C R, Side: L R, LFE
Sampling rate                  : 48.0 KHz
Bit depth                      : 24 bits
Compression mode               : Lossy
Stream size                    : 1.29 GiB (6%)
Title                          : ПМ - Карусель
Language                       : Russian
Default                        : No
Forced                         : No
Audio #7
ID                             : 10
Format                         : AC-3
Format/Info                    : Audio Coding 3
Mode extension                 : CM (complete main)
Format settings, Endianness    : Big
Codec ID                       : A_AC3
Duration                       : 2h 2mn
Bit rate mode                  : Constant
Bit rate                       : 128 Kbps
Channel(s)                     : 2 channels
Channel positions              : Front: L R
Sampling rate                  : 48.0 KHz
Bit depth                      : 16 bits
Compression mode               : Lossy
Stream size                    : 112 MiB (0%)
Title                          : ПМ - НТВ
Language                       : Russian
Default                        : No
Forced                         : No
Audio #8
ID                             : 11
Format                         : AC-3
Format/Info                    : Audio Coding 3
Mode extension                 : CM (complete main)
Format settings, Endianness    : Big
Codec ID                       : A_AC3
Duration                       : 2h 2mn
Bit rate mode                  : Constant
Bit rate                       : 192 Kbps
Channel(s)                     : 2 channels
Channel positions              : Front: L R
Sampling rate                  : 48.0 KHz
Bit depth                      : 16 bits
Compression mode               : Lossy
Stream size                    : 169 MiB (1%)
Title                          : ПМ - ОРТ
Language                       : Russian
Default                        : No
Forced                         : No
Audio #9
ID                             : 12
Format                         : AC-3
Format/Info                    : Audio Coding 3
Mode extension                 : CM (complete main)
Format settings, Endianness    : Big
Codec ID                       : A_AC3
Duration                       : 2h 2mn
Bit rate mode                  : Constant
Bit rate                       : 192 Kbps
Channel(s)                     : 2 channels
Channel positions              : Front: L R
Sampling rate                  : 48.0 KHz
Bit depth                      : 16 bits
Compression mode               : Lossy
Stream size                    : 169 MiB (1%)
Title                          : АП - Дольский
Language                       : Russian
Default                        : No
Forced                         : No
Text #1
ID                             : 7
Format                         : PGS
Muxing mode                    : zlib
Codec ID                       : S_HDMV/PGS
Codec ID/Info                  : The same subtitle format used on BDs/HD-DVDs
Language                       : English
Default                        : Yes
Forced                         : No
Text #2
ID                             : 8
Format                         : PGS
Muxing mode                    : zlib
Codec ID                       : S_HDMV/PGS
Codec ID/Info                  : The same subtitle format used on BDs/HD-DVDs
Language                       : Russian
Default                        : No
Forced                         : No

BV

-Скриншоты: -24/7 - круглосуточно

[Цитировать]



Показать сообщения:    

Текущее время: 10-Дек 04:15

Часовой пояс: UTC + 3


Вы не можете начинать темы
Вы не можете отвечать на сообщения
Вы не можете редактировать свои сообщения
Вы не можете удалять свои сообщения
Вы не можете голосовать в опросах
Вы не можете прикреплять файлы к сообщениям
Вы не можете скачивать файлы

!ВНИМАНИЕ!
Сайт не предоставляет электронные версии произведений, а занимается лишь коллекционированием и каталогизацией ссылок, присылаемых и публикуемых на форуме нашими читателями. Если вы являетесь правообладателем какого-либо представленного материала и не желаете, чтобы ссылка на него находилась в нашем каталоге, свяжитесь с нами, и мы незамедлительно удалим ее. Файлы для обмена на трекере предоставлены пользователями сайта, и администрация не несет ответственности за их содержание. Просьба не заливать файлы, защищенные авторскими правами, а также файлы нелегального содержания!