[ Сегодня идет свободное скачивание без начисления Download ]


Статистика раздачи
Нет
 
   
 
Top  
 
 
-Невозможное / Lo imposible (2012) BDRip 1080p
«Nothing is more powerful than the human spirit.»
- Русское название: Невозможное
Оригинальное название: Lo imposible / The Impossible
Год выпуска: 2012
Производство: Испания | Apaches Entertainment, Telecinco Cinema, Mediaset Espa?a
Жанр: Триллер, Драма
Перевод: Двухголосый закадровый, любительский
Озвучка / Автор перевода: [den904, DeadSno], перевод [Janetta]
Язык субтитров: Русский, Английский, Французкий
Вид субтитров: Вшитые отключаемые-Дата мировой премьеры: 9 сентября 2012
Дата российской премьеры: 14 февраля 2013, «Централ Партнершип»-Режиссер: Хуан Антонио Байона-Продюсер: Белен Атьенца, Альваро Аугустин, Гислен Баруа-Актеры: Наоми Уоттс, Юэн МакГрегор, Том Холлэнд, Сэмюэл Джослин, Оакли Пендергаст, Марта Этура, Шенке Мёринг, Джеральдин Чаплин, Плой Хиндачоте, Жомжаои Сэ-Лим-Описание фильма:
В фильме "Невозможное / Lo imposible / The Impossible" пойдет речь о трагических событиях, разворачивающихся на фоне цунами 2004 года.
Во все времена человек был практически беззащитен перед стихиями природы, будь то ураган, тайфун, паводок, снежная лавина или цунами. И даже в наше время высокого развития технологий и создания мощных машин ситуация не изменилась. Действие этого фильма происходит в 2004 году. На город обрушивается цунами огромной силы, разрушая все, что можно разрушить. Людям остается только спасать себя и своих близких любыми путями, прилагая невероятные усилия. Здесь волей-неволей приходится раскрывать самые непредвиденные возможности своего организма и мышления. Вот именно так и становится невозможное возможным.-
Продолжительность: 01:53:31
Качество видео: BDRip 1080p
Видеокодек: MPEG-4 AVC/H.264
Битрейт видео: ~ 11,9 Мбит/сек
Размер кадра: 1920 x 812 (2.365) at 24.000 fps : 0.318 Bit/Pixel
Аудиокодек: AC3 2.0 | DTS
Аудио #1: AC3 192 Кбит/сек (2ch), 48,0 КГц, 16 бит [Русский, DVO]
Аудио #2: DTS 1510 Кбит/сек (6ch), 48,0 КГц, 24 бит [Английский]

Трейлер / Ролик

[youtube]http://www.youtube.com/v/KlHCp71r0HQ&fs=1[/youtube]

Награды:

MediaInfo:

Полное имя                               : F:\Фильмы\BluRay-без перевода\Невозможное  Lo imposible (2012) BDRip 1080p\Nevozmozhnoe.2012.L2.BDRip.1080p.NNM-CLUB.mkv
Формат                                   : Matroska
Версия формата                           : Version 2
Размер файла                             : 11,0 Гбайт
Продолжительность                        : 1 ч. 53 м.
Общий поток                              : 13,9 Мбит/сек
Дата кодирования                         : UTC 2013-02-10 03:52:45
Программа кодирования                    : mkvmerge v2.9.9 ('Tutu') built on Nov 25 2009 21:13:32
Библиотека кодирования                   : libebml v0.7.9 + libmatroska v0.8.1
Attachment                               : Yes
Видео
Идентификатор                            : 1
Формат                                   : AVC
Формат/Информация                        : Advanced Video Codec
Профиль формата                          : [url=mailto:High@L4.1]High@L4.1[/url]
Параметр CABAC формата                   : Да
Параметр ReFrames формата                : 5 кадров
Идентификатор кодека                     : V_MPEG4/ISO/AVC
Продолжительность                        : 1 ч. 53 м.
Битрейт                                  : 11,9 Мбит/сек
Номинальный битрейт                      : 12,8 Мбит/сек
Ширина                                   : 1920 пикселей
Высота                                   : 812 пикселей
Соотношение сторон                       : 2,35:1
Режим частоты кадров                     : Постоянный
Частота кадров                           : 24,000 кадра/сек
Цветовое пространство                    : YUV
Субдискретизация насыщенности            : 4:2:0
Битовая глубина                          : 8 бит
Тип развёртки                            : Прогрессивная
Бит/(Пиксели*Кадры)                      : 0.318
Размер потока                            : 9,43 Гбайт (86%)
Заголовок                                : Nevozmozhnoe.2012.L2.BDRip.1080p.NNM-CLUB
Библиотека кодирования                   : x264 core 129 r2230 1cffe9f
Настройки программы                      : cabac=1 / ref=5 / deblock=1:0:0 / analyse=0x3:0x113 / me=hex / subme=7 / psy=1 / psy_rd=1.00:0.00 / mixed_ref=1 / me_range=16 / chroma_me=1 / trellis=1 / 8x8dct=1 / cqm=0 / deadzone=21,11 / fast_pskip=1 / chroma_qp_offset=-2 / threads=16 / lookahead_threads=2 / sliced_threads=0 / nr=0 / decimate=1 / interlaced=0 / bluray_compat=0 / constrained_intra=0 / bframes=3 / b_pyramid=2 / b_adapt=1 / b_bias=0 / direct=1 / weightb=1 / open_gop=0 / weightp=2 / keyint=240 / keyint_min=24 / scenecut=40 / intra_refresh=0 / rc_lookahead=40 / rc=abr / mbtree=1 / bitrate=12800 / ratetol=1.0 / qcomp=0.60 / qpmin=0 / qpmax=69 / qpstep=4 / ip_ratio=1.40 / aq=1:1.00
Язык                                     : English
Default                                  : Нет
Forced                                   : Нет
Аудио #1
Идентификатор                            : 2
Формат                                   : AC-3
Формат/Информация                        : Audio Coding 3
Расширение режима                        : CM (complete main)
Параметр Endianness формата              : Big
Идентификатор кодека                     : A_AC3
Продолжительность                        : 1 ч. 53 м.
Вид битрейта                             : Постоянный
Битрейт                                  : 192 Кбит/сек
Каналы                                   : 2 канала
Расположение каналов                     : Front: L R
Частота                                  : 48,0 КГц
Битовая глубина                          : 16 бит
Метод сжатия                             : С потерями
Размер потока                            : 156 Мбайт (1%)
Заголовок                                : AC3.192Kbps (2ch) [den904, DeadSno] Russian
Язык                                     : Russian
Default                                  : Да
Forced                                   : Нет
Аудио #2
Идентификатор                            : 3
Формат                                   : DTS
Формат/Информация                        : Digital Theater Systems
Идентификатор кодека                     : A_DTS
Продолжительность                        : 1 ч. 53 м.
Вид битрейта                             : Постоянный
Битрейт                                  : 1510 Кбит/сек
Каналы                                   : 6 каналов
Расположение каналов                     : Front: L C R, Side: L R, LFE
Частота                                  : 48,0 КГц
Битовая глубина                          : 24 бит
Метод сжатия                             : С потерями
Задержка видео                           : 11 мс.
Размер потока                            : 1,20 Гбайт (11%)
Заголовок                                : DTS.1510.Kbps (6ch) English
Язык                                     : English
Default                                  : Нет
Forced                                   : Нет
Текст #1
Идентификатор                            : 4
Формат                                   : UTF-8
Идентификатор кодека                     : S_TEXT/UTF8
Идентификатор кодека/Информация          : UTF-8 Plain Text
Заголовок                                : Russian (Full)
Язык                                     : Russian
Default                                  : Да
Forced                                   : Нет
Текст #2
Идентификатор                            : 5
Формат                                   : UTF-8
Идентификатор кодека                     : S_TEXT/UTF8
Идентификатор кодека/Информация          : UTF-8 Plain Text
Заголовок                                : French (Full)
Язык                                     : French
Default                                  : Нет
Forced                                   : Нет
Текст #3
Идентификатор                            : 6
Формат                                   : UTF-8
Идентификатор кодека                     : S_TEXT/UTF8
Идентификатор кодека/Информация          : UTF-8 Plain Text
Заголовок                                : English (Full)
Язык                                     : English
Default                                  : Нет
Forced                                   : Нет
Меню
00:00:00.000                             : en:00:00:00.000
00:07:10.292                             : en:00:07:10.292
00:12:50.875                             : en:00:12:50.875
00:21:20.250                             : en:00:21:20.250
00:27:02.625                             : en:00:27:02.625
00:31:59.083                             : en:00:31:59.083
00:38:13.792                             : en:00:38:13.792
00:44:35.833                             : en:00:44:35.833
00:51:09.125                             : en:00:51:09.125
00:56:24.042                             : en:00:56:24.042
01:03:24.583                             : en:01:03:24.583
01:10:14.500                             : en:01:10:14.500
01:15:27.292                             : en:01:15:27.292
01:23:51.083                             : en:01:23:51.083
01:36:00.500                             : en:01:36:00.500
Скриншоты:




Время раздачи: 24/7 (до 10 скачавших)

[Цитировать]



Показать сообщения:    

Текущее время: 11-Дек 09:13

Часовой пояс: UTC + 3


Вы не можете начинать темы
Вы не можете отвечать на сообщения
Вы не можете редактировать свои сообщения
Вы не можете удалять свои сообщения
Вы не можете голосовать в опросах
Вы не можете прикреплять файлы к сообщениям
Вы не можете скачивать файлы

!ВНИМАНИЕ!
Сайт не предоставляет электронные версии произведений, а занимается лишь коллекционированием и каталогизацией ссылок, присылаемых и публикуемых на форуме нашими читателями. Если вы являетесь правообладателем какого-либо представленного материала и не желаете, чтобы ссылка на него находилась в нашем каталоге, свяжитесь с нами, и мы незамедлительно удалим ее. Файлы для обмена на трекере предоставлены пользователями сайта, и администрация не несет ответственности за их содержание. Просьба не заливать файлы, защищенные авторскими правами, а также файлы нелегального содержания!