[ Сегодня идет свободное скачивание без начисления Download ]


Статистика раздачи
Качаю: [ 1 ]
Скачал: [ 9 ]
 
   
 
Top  
 
 
ProfiT | JavaScript с самого начала (2016) WEBRip - Автор (режиссер): Государев Илья
Производство: Россия, ProfIT
Жанр: Веб-разработка, Frontend, JavaScript
Описание:
Вводный курс для тех, кто хочет приступить к веб-программированию, начиная с самых основ. Рассматривается в основном программирование на JavaScript на стороне клиента, однако курс закладывает базу и для серверного программирования. В материал, кроме теории, включены практические советы, рассматриваются решения типичных и не очень типичных задач, стоящих перед разработчиком в современных реалиях.
Закончив интенсив, вы получите начальные знания и навыки, достаточные для продолжения обучения языку JavaScript, и позволяющие работать в несложных проектах на позиции начинающего веб-программиста.
Ссылка на официальный видеокурс: http://pr-of-it.ru/sprints/9.html
Продолжительность: 19:00:00
Качество видео: WEBRip
Видео: AVC/H.264, 1280x684, ~470 Kbps
Аудио: AAC, 2 ch, 192 Kbps, VBR

Mediainfo:

Общее
Полное имя                               : D:\Документы\DEVELOPER\Profit_JS_s_samogo_nachala\1\2016-03-02 Интенсив «JavaScript с самого начала», урок 1-HPICmypHM44.mp4
Формат                                   : MPEG-4
Профиль формата                          : Base Media / Version 2
Идентификатор кодека                     : mp42 (isom/mp42)
Размер файла                             : 503 Мбайт
Продолжительность                        : 1 ч. 45 м.
Режим общего битрейта                    : Переменный
Общий поток                              : 664 Кбит/сек
Дата кодирования                         : UTC 2016-03-03 19:22:34
Дата пометки                             : UTC 2016-03-03 19:22:34
gsst                                     : 0
gstd                                     : 6356693
Видео
Идентификатор                            : 1
Формат                                   : AVC
Формат/Информация                        : Advanced Video Codec
Профиль формата                          : [url=mailto:High@L3.1]High@L3.1[/url]
Параметр CABAC формата                   : Да
Параметр ReFrames формата                : 1 кадр
Параметр GOP формата                     : M=1, N=60
Идентификатор кодека                     : avc1
Идентификатор кодека/Информация          : Advanced Video Coding
Продолжительность                        : 1 ч. 45 м.
Битрейт                                  : 470 Кбит/сек
Максимальный битрейт                     : 4690 Кбит/сек
Ширина                                   : 1280 пикселей
Высота                                   : 684 пикселя
Соотношение сторон                       : 1,85:1
Режим частоты кадров                     : Постоянный
Частота кадров                           : 15,000 кадров/сек
Цветовое пространство                    : YUV
Субдискретизация насыщенности            : 4:2:0
Битовая глубина                          : 8 бит
Тип развёртки                            : Прогрессивная
Бит/(Пиксели*Кадры)                      : 0.036
Размер потока                            : 356 Мбайт (71%)
Дата пометки                             : UTC 2016-03-03 19:23:19
Аудио
Идентификатор                            : 2
Формат                                   : AAC
Формат/Информация                        : Advanced Audio Codec
Профиль формата                          : LC
Идентификатор кодека                     : 40
Продолжительность                        : 1 ч. 45 м.
Вид битрейта                             : Переменный
Битрейт                                  : 192 Кбит/сек
Максимальный битрейт                     : 202 Кбит/сек
Каналы                                   : 2 канала
Расположение каналов                     : Front: L R
Частота                                  : 44,1 КГц
Частота кадров                           : 43,066 кадра/сек (1024 spf)
Метод сжатия                             : С потерями
Размер потока                            : 145 Мбайт (29%)
Заголовок                                : IsoMedia File Produced by Google, 5-11-2011
Язык                                     : English
Дата кодирования                         : UTC 2016-03-03 19:22:59
Дата пометки                             : UTC 2016-03-03 19:23:19

Содержание курса:

1. Основы. Переменные и выражения.
2. Типы данных и функции
3. Синтаксис основных операторов
4. DOM
5. События и их слушатели
6. Строки, массивы и объекты
7. Обзор библиотеки jQuery
8. Асинхронное программирование
Скриншоты:

[Цитировать]



Показать сообщения:    

Текущее время: 08-Дек 19:08

Часовой пояс: UTC + 3


Вы не можете начинать темы
Вы не можете отвечать на сообщения
Вы не можете редактировать свои сообщения
Вы не можете удалять свои сообщения
Вы не можете голосовать в опросах
Вы не можете прикреплять файлы к сообщениям
Вы не можете скачивать файлы

!ВНИМАНИЕ!
Сайт не предоставляет электронные версии произведений, а занимается лишь коллекционированием и каталогизацией ссылок, присылаемых и публикуемых на форуме нашими читателями. Если вы являетесь правообладателем какого-либо представленного материала и не желаете, чтобы ссылка на него находилась в нашем каталоге, свяжитесь с нами, и мы незамедлительно удалим ее. Файлы для обмена на трекере предоставлены пользователями сайта, и администрация не несет ответственности за их содержание. Просьба не заливать файлы, защищенные авторскими правами, а также файлы нелегального содержания!